<?xml version="1.0" standalone="no"?>
<!DOCTYPE svg PUBLIC "-//W3C//DTD SVG 1.1//EN" "http://www.w3.org/Graphics/SVG/1.1/DTD/svg11.dtd" >
<svg xmlns="http://www.w3.org/2000/svg">
<metadata>Generated by IcoMoon</metadata>
<defs>
<font id="coolicons" horiz-adv-x="1024">
<font-face units-per-em="1024" ascent="960" descent="-64" />
<missing-glyph horiz-adv-x="1024" />
<glyph unicode="&#x20;" horiz-adv-x="512" d="" />
<glyph unicode="&#xe900;" glyph-name="line_s" d="M554.667 597.334h-85.333v-341.333h85.333v341.333z" />
<glyph unicode="&#xe901;" glyph-name="line_sx" d="M554.667 512h-85.333v-170.667h85.333v170.667z" />
<glyph unicode="&#xe902;" glyph-name="line_xl" d="M554.667 853.334h-85.333v-853.333h85.333v853.333z" />
<glyph unicode="&#xe903;" glyph-name="dot_01_xs" d="M512 341.334c-47.13 0-85.333 38.204-85.333 85.333s38.204 85.333 85.333 85.333c47.13 0 85.333-38.204 85.333-85.333 0-22.63-8.99-44.335-24.994-60.339s-37.709-24.994-60.339-24.994z" />
<glyph unicode="&#xe904;" glyph-name="dot_02_s" d="M512 298.667c-70.694 0-128 57.306-128 128s57.306 128 128 128c70.694 0 128-57.306 128-128 0-33.946-13.487-66.505-37.491-90.509s-56.563-37.491-90.509-37.491z" />
<glyph unicode="&#xe905;" glyph-name="dot_04_l" d="M512 213.334c-117.821 0-213.333 95.514-213.333 213.333s95.513 213.333 213.333 213.333c117.82 0 213.333-95.513 213.333-213.333s-95.514-213.333-213.333-213.333z" />
<glyph unicode="&#xe906;" glyph-name="dot_05_xl" d="M512 170.667c-141.385 0-256 114.615-256 256s114.615 256 256 256c141.385 0 256-114.615 256-256 0-67.895-26.97-133.009-74.982-181.018-48.009-48.013-113.122-74.982-181.018-74.982z" />
<glyph unicode="&#xe907;" glyph-name="dot_03_m" d="M512 256c-94.257 0-170.667 76.412-170.667 170.667 0 94.257 76.41 170.667 170.667 170.667 94.255 0 170.667-76.41 170.667-170.667 0-45.265-17.98-88.674-49.988-120.678-32.004-32.009-75.413-49.988-120.678-49.988z" />
<glyph unicode="&#xe908;" glyph-name="line_m" d="M554.667 682.667h-85.333v-512h85.333v512z" />
<glyph unicode="&#xe909;" glyph-name="line_l" d="M554.667 768h-85.333v-682.667h85.333v682.667z" />
<glyph unicode="&#xe90a;" glyph-name="home_heart-1" d="M810.667-0h-597.333c-23.564 0-42.667 19.102-42.667 42.667v411.435c0.661 10.458 5.105 20.314 12.501 27.733l298.667 298.668c8.004 8.012 18.863 12.513 30.187 12.513s22.182-4.502 30.187-12.513l298.667-298.668c8.009-7.991 12.497-18.85 12.459-30.165v-409.003c0-23.565-19.102-42.667-42.667-42.667zM485.461 193.067c9.387-7.68 18.475-15.189 26.539-22.4 8.533 7.552 18.091 15.36 28.245 23.637l2.432 2.005c49.749 40.576 111.701 91.051 111.701 153.6-0.009 20.638-8.32 40.405-23.066 54.844-14.746 14.443-34.679 22.34-55.313 21.914-24.414 0.068-47.697-10.287-64-28.459-16.303 18.176-39.586 28.531-64 28.459-20.625 0.401-40.546-7.514-55.274-21.961-14.727-14.443-23.023-34.21-23.020-54.839 0-62.336 61.44-112.469 110.933-152.747h0.171l0.768-0.64h0.213l0.341-0.811 2.219-1.835 0.555-0.427h0.256l0.299-0.341z" />
<glyph unicode="&#xe90b;" glyph-name="home_alt_fill" d="M85.333 384l396.501 396.503c16.661 16.656 43.669 16.656 60.331 0l396.501-396.503h-85.333v-341.333c0-23.565-19.102-42.667-42.667-42.667h-213.333v298.667h-170.667v-298.667h-213.333c-23.564 0-42.667 19.102-42.667 42.667v341.333h-85.333z" />
<glyph unicode="&#xe90c;" glyph-name="home_alt_check" d="M810.667-0h-597.333c-23.564 0-42.667 19.102-42.667 42.667v411.435c0.661 10.458 5.105 20.314 12.501 27.733l298.667 298.668c8.004 8.012 18.863 12.513 30.187 12.513s22.182-4.502 30.187-12.513l298.667-298.668c8.009-7.991 12.497-18.85 12.459-30.165v-409.003c0-23.565-19.102-42.667-42.667-42.667zM512 690.007l-256-256.001v-348.672h512v348.672l-256 256.001zM448 146.816l-115.456 115.2 59.989 60.501 55.467-55.125 183.467 183.125 60.245-60.416-243.712-243.285z" />
<glyph unicode="&#xe90d;" glyph-name="home_x" d="M682.667 85.334h-469.333c-23.564 0-42.667 19.102-42.667 42.667v335.36c0 11.063 4.299 21.696 11.989 29.653l234.667 243.199c8.041 8.33 19.123 13.035 30.699 13.035s22.656-4.705 30.699-13.035l91.136-94.507-61.184-59.477-60.672 62.891-192-198.826v-275.413h469.333v-42.667c0.055-11.354-4.412-22.259-12.42-30.31-8.009-8.047-18.893-12.57-30.246-12.57zM611.925 256l-60.288 60.331 90.496 90.539-90.496 90.624 60.331 60.33 90.496-90.495 90.496 90.495 60.373-60.33-90.496-90.624 90.496-90.539-60.331-60.288-90.539 90.496-90.539-90.539z" />
<glyph unicode="&#xe90e;" glyph-name="home_plus" d="M682.667 85.334h-469.333c-23.564 0-42.667 19.102-42.667 42.667v335.36c0 11.063 4.299 21.696 11.989 29.653l234.667 243.199c8.041 8.33 19.123 13.035 30.699 13.035s22.656-4.705 30.699-13.035l70.443-73.088-61.141-59.477-40.021 41.472-192-198.826v-275.413h469.333v-42.667c0.055-11.354-4.412-22.259-12.42-30.31-8.009-8.047-18.893-12.57-30.246-12.57zM725.333 256h-85.333v128h-128v85.333h128v127.999h85.333v-127.999h128v-85.333h-128v-128z" />
<glyph unicode="&#xe90f;" glyph-name="home_alt_x" d="M810.667-0h-597.333c-23.564 0-42.667 19.102-42.667 42.667v411.435c0.661 10.458 5.105 20.314 12.501 27.733l298.667 298.668c8.004 8.012 18.863 12.513 30.187 12.513s22.182-4.502 30.187-12.513l298.667-298.668c8.009-7.991 12.497-18.85 12.459-30.165v-409.003c0-23.565-19.102-42.667-42.667-42.667zM512 690.007l-256-256.001v-348.672h512v348.672l-256 256.001zM421.461 167.638l-60.288 60.331 90.496 90.496-90.496 90.539 60.331 60.331 90.496-90.496 90.496 90.496 60.331-60.331-90.496-90.496 90.496-90.496-60.288-60.288-90.539 90.453-90.539-90.539z" />
<glyph unicode="&#xe910;" glyph-name="home_minus" d="M682.667 85.334h-469.333c-23.564 0-42.667 19.102-42.667 42.667v335.36c0 11.063 4.299 21.696 11.989 29.653l234.667 243.199c8.041 8.33 19.123 13.035 30.699 13.035s22.656-4.705 30.699-13.035l119.467-123.733-61.013-59.819-89.173 92.459-192-198.826v-275.413h469.333v-42.667c0.055-11.354-4.412-22.259-12.42-30.31-8.009-8.047-18.893-12.57-30.246-12.57zM853.333 341.334h-341.333v85.333h341.333v-85.333z" />
<glyph unicode="&#xe911;" glyph-name="home_heart" d="M810.667-0h-597.333c-23.564 0-42.667 19.102-42.667 42.667v411.435c0.661 10.458 5.105 20.314 12.501 27.733l298.667 298.668c8.004 8.012 18.863 12.513 30.187 12.513s22.182-4.502 30.187-12.513l298.667-298.668c8.009-7.991 12.497-18.85 12.459-30.165v-409.003c0-23.565-19.102-42.667-42.667-42.667zM512 690.007l-256-256.001v-348.672h512v348.672l-256 256.001zM512 170.71c-8.875 7.893-18.901 16.128-29.525 24.832l-2.005 1.621c-49.365 40.277-110.933 90.411-110.933 152.747 0.007 20.655 8.331 40.435 23.095 54.874 14.764 14.443 34.723 22.332 55.369 21.884 24.414 0.068 47.697-10.287 64-28.459 16.307 18.167 39.586 28.518 64 28.459 20.625 0.401 40.546-7.514 55.275-21.961 14.729-14.443 23.023-34.21 23.019-54.839 0-62.549-61.952-113.024-111.701-153.6l-2.432-2.005c-10.112-8.277-19.669-16.085-28.203-23.637l0.043 0.085z" />
<glyph unicode="&#xe912;" glyph-name="home_alt_plus" d="M810.667-0h-597.333c-23.564 0-42.667 19.102-42.667 42.667v411.435c0.661 10.458 5.105 20.314 12.501 27.733l298.667 298.668c8.004 8.012 18.863 12.513 30.187 12.513s22.182-4.502 30.187-12.513l298.667-298.668c8.009-7.991 12.497-18.85 12.459-30.165v-409.003c0-23.565-19.102-42.667-42.667-42.667zM512 690.007l-256-256.001v-348.672h512v348.672l-256 256.001zM554.667 170.71h-85.333v128h-128v85.333h128v128.001h85.333v-128.001h128v-85.333h-128v-128z" />
<glyph unicode="&#xe913;" glyph-name="home_alt_minus" d="M810.667-0h-597.333c-23.564 0-42.667 19.102-42.667 42.667v411.435c0.661 10.458 5.105 20.314 12.501 27.733l298.667 298.668c8.004 8.012 18.863 12.513 30.187 12.513s22.182-4.502 30.187-12.513l298.667-298.668c8.009-7.991 12.497-18.85 12.459-30.165v-409.003c0-23.565-19.102-42.667-42.667-42.667zM512 690.007l-256-256.001v-348.672h512v348.672l-256 256.001zM682.667 256h-341.333v85.333h341.333v-85.333z" />
<glyph unicode="&#xe914;" glyph-name="home_fill" d="M183.168 481.835l298.667 298.668c16.661 16.656 43.669 16.656 60.331 0l298.667-298.668c8-8 12.501-18.85 12.501-30.165v-409.003c0-23.565-19.102-42.667-42.667-42.667h-213.333v298.667h-170.667v-298.667h-213.333c-23.564 0-42.667 19.102-42.667 42.667v409.003c0 11.315 4.499 22.165 12.501 30.165z" />
<glyph unicode="&#xe915;" glyph-name="home_alt_outline" d="M810.667-0h-597.333c-23.564 0-42.667 19.102-42.667 42.667v341.333h-85.333l396.459 396.502c8.004 8.012 18.863 12.513 30.187 12.513s22.182-4.502 30.187-12.513l396.501-396.502h-85.333v-341.333c0-23.565-19.102-42.667-42.667-42.667zM426.667 298.667h170.667v-213.333h170.667v348.672l-256 256.001-256-256.001v-348.672h170.667v213.333z" />
<glyph unicode="&#xe916;" glyph-name="home_outline" d="M810.667-0h-597.333c-23.564 0-42.667 19.102-42.667 42.667v409.003c0 11.315 4.499 22.165 12.501 30.165l298.667 298.668c8.004 8.012 18.863 12.513 30.187 12.513s22.182-4.502 30.187-12.513l298.667-298.668c8.009-7.991 12.497-18.85 12.459-30.165v-409.003c0-23.565-19.102-42.667-42.667-42.667zM426.667 298.667h170.667v-213.333h170.667v348.672l-256 256.001-256-256.001v-348.672h170.667v213.333z" />
<glyph unicode="&#xe917;" glyph-name="home_check" d="M682.667 85.334h-469.333c-23.564 0-42.667 19.102-42.667 42.667v335.36c0 11.063 4.299 21.696 11.989 29.653l234.667 243.199c8.041 8.33 19.123 13.035 30.699 13.035s22.656-4.705 30.699-13.035l119.467-123.733-61.013-59.819-89.173 92.459-192-198.826v-275.413h469.333v-42.667c0.055-11.354-4.412-22.259-12.42-30.31-8.009-8.047-18.893-12.57-30.246-12.57zM609.621 256l-115.456 115.2 60.501 60.501 55.125-55.083 183.467 183.124 60.075-60.458-243.712-243.285z" />
<glyph unicode="&#xe918;" glyph-name="building" d="M853.333 42.667h-682.667c-23.564 0-42.667 19.102-42.667 42.667v311.467c0 12.292 5.304 23.987 14.549 32.085l70.784 61.781v277.333c0 23.564 19.103 42.667 42.667 42.667h597.333c23.565 0 42.667-19.103 42.667-42.667v-682.667c0-23.565-19.102-42.667-42.667-42.667zM384 625.963c10.33-0.012 20.306-3.772 28.075-10.581l213.333-186.667c9.216-8.051 14.532-19.678 14.592-31.915v-268.8h170.667v597.333h-512v-160l57.216 50.091c7.786 6.804 17.777 10.549 28.117 10.539zM341.333 256h85.333v-128h128v249.301l-170.667 149.333-170.667-149.333v-249.301h128v128z" />
<glyph unicode="&#xe919;" glyph-name="info_square" d="M853.333 42.667h-682.667c-23.564 0-42.667 19.102-42.667 42.667v682.667c0 23.564 19.103 42.667 42.667 42.667h682.667c23.565 0 42.667-19.103 42.667-42.667v-682.667c0-23.565-19.102-42.667-42.667-42.667zM426.667 469.334v-85.333h42.667v-170.667h128v85.333h-42.667v170.667h-128zM469.333 640v-85.333h85.333v85.333h-85.333z" />
<glyph unicode="&#xe91a;" glyph-name="error_outline" d="M511.573-0c-235.586 0.235-426.397 191.364-426.24 426.953 0.157 235.584 191.223 426.459 426.807 426.381 235.588-0.079 426.526-191.081 426.526-426.667-0.141-235.75-191.343-426.761-427.093-426.667zM170.667 419.328c2.019-187.785 155.354-338.667 343.147-337.664 187.797 1.015 339.499 153.536 339.499 341.333s-151.701 340.319-339.499 341.334c-187.793 1.004-341.128-149.878-343.147-337.664v-7.339zM554.667 213.334h-85.333v85.333h85.333v-85.333zM554.667 384h-85.333v256h85.333v-256z" />
<glyph unicode="&#xe91b;" glyph-name="warning" d="M907.345 42.752h-790.742c-15.243 0-29.328 8.132-36.949 21.333s-7.622 29.466 0 42.667l395.35 682.667c7.629 13.179 21.7 21.295 36.928 21.295s29.299-8.115 36.928-21.295l395.349-682.667c7.616-13.193 7.62-29.449 0.009-42.645-7.607-13.201-21.679-21.338-36.915-21.355h0.043zM469.329 256.086v-85.333h85.248v85.333h-85.248zM469.329 554.753v-213.334h85.333v213.334h-85.333z" />
<glyph unicode="&#xe91c;" glyph-name="info_circle" d="M512-0c-235.642 0-426.667 191.027-426.667 426.667 0 235.642 191.025 426.667 426.667 426.667 235.639 0 426.667-191.025 426.667-426.667-0.26-235.533-191.134-426.406-426.667-426.667zM426.24 469.76v-85.76h42.667v-170.667h128.853v85.333h-43.093l0.427 171.051-128.853 0.043zM468.907 640v-86.144h86.187v86.144h-86.187z" />
<glyph unicode="&#xe91d;" glyph-name="error" d="M512-0c-235.642 0-426.667 191.027-426.667 426.667 0 235.642 191.025 426.667 426.667 426.667 235.639 0 426.667-191.025 426.667-426.667-0.26-235.533-191.134-426.406-426.667-426.667zM469.333 298.667v-85.333h85.333v85.333h-85.333zM469.333 640v-256h85.333v256h-85.333z" />
<glyph unicode="&#xe91e;" glyph-name="info_square_outline" d="M853.333 42.667h-682.667c-23.564 0-42.667 19.102-42.667 42.667v682.667c0 23.564 19.103 42.667 42.667 42.667h682.667c23.565 0 42.667-19.103 42.667-42.667v-682.667c0-23.565-19.102-42.667-42.667-42.667zM213.333 725.334v-597.333h597.333v597.333h-597.333zM597.333 213.334h-128v170.667h-42.667v85.333h128v-170.667h42.667v-85.333zM554.667 554.667h-85.333v85.333h85.333v-85.333z" />
<glyph unicode="&#xe91f;" glyph-name="warning_outline" d="M907.345 42.752h-790.742c-15.243 0-29.328 8.132-36.949 21.333s-7.622 29.466 0 42.667l395.35 682.667c7.629 13.179 21.7 21.295 36.928 21.295s29.299-8.115 36.928-21.295l395.349-682.667c7.616-13.193 7.62-29.449 0.009-42.645-7.607-13.201-21.679-21.338-36.915-21.355h0.043zM511.996 682.753l-321.324-554.667h642.732l-321.408 554.667zM554.449 298.71h-85.333v213.376h85.333v-213.376zM469.329 256h85.333v-85.333h-85.333v85.333z" />
<glyph unicode="&#xe920;" glyph-name="info_circle_outline" d="M512-0c-235.642 0-426.667 191.027-426.667 426.667 0 235.642 191.025 426.667 426.667 426.667 235.639 0 426.667-191.025 426.667-426.667-0.26-235.533-191.134-426.406-426.667-426.667zM170.667 419.328c2.019-187.785 155.354-338.667 343.147-337.664 187.797 1.015 339.499 153.536 339.499 341.333s-151.701 340.319-339.499 341.333c-187.793 1.004-341.128-149.878-343.147-337.664v-7.339zM597.333 213.334h-128v170.667h-42.667v85.333h128v-170.667h42.667v-85.333zM554.667 554.667h-85.333v85.333h85.333v-85.333z" />
<glyph unicode="&#xe921;" glyph-name="calendar_edit" d="M810.667-0h-597.333c-47.128 0-85.333 38.204-85.333 85.333v597.333c0 47.128 38.205 85.333 85.333 85.333h85.333v85.333h85.333v-85.333h256v85.333h85.333v-85.333h85.333c47.13 0 85.333-38.205 85.333-85.333v-597.333c0-47.13-38.204-85.333-85.333-85.333zM213.333 512v-426.667h597.333v426.667h-597.333zM213.333 682.667v-85.333h597.333v85.333h-597.333zM418.133 128h-76.8v76.8l179.2 178.773 76.8-76.8-179.2-178.773zM624 333.568l-76.8 76.8 58.667 58.411 76.8-76.8-58.453-58.453-0.213 0.043z" />
<glyph unicode="&#xe922;" glyph-name="calendar_event" d="M810.667-0h-597.333c-47.128 0-85.333 38.204-85.333 85.333v597.333c0 47.128 38.205 85.333 85.333 85.333h85.333v85.333h85.333v-85.333h256v85.333h85.333v-85.333h85.333c47.13 0 85.333-38.205 85.333-85.333v-597.333c0-47.13-38.204-85.333-85.333-85.333zM213.333 512v-426.667h597.333v426.667h-597.333zM213.333 682.667v-85.333h597.333v85.333h-597.333zM554.667 170.667h-256v256h256v-256z" />
<glyph unicode="&#xe923;" glyph-name="calendar_check" d="M810.667-0h-597.333c-47.128 0-85.333 38.204-85.333 85.333v597.333c0 47.128 38.205 85.333 85.333 85.333h85.333v85.333h85.333v-85.333h256v85.333h85.333v-85.333h85.333c47.13 0 85.333-38.205 85.333-85.333v-597.333c0-47.13-38.204-85.333-85.333-85.333zM213.333 512v-426.667h597.333v426.667h-597.333zM213.333 682.667v-85.333h597.333v85.333h-597.333zM469.333 153.003l-158.165 158.165 60.331 60.331 97.835-97.835 183.168 183.168 60.331-60.331-243.499-243.499z" />
<glyph unicode="&#xe924;" glyph-name="calendar_calendar" d="M810.624-0h-597.332c-47.128 0-85.333 38.204-85.333 85.333v597.333c0 47.128 38.205 85.333 85.333 85.333h85.333v85.333h85.333v-85.333h255.999v85.333h85.333v-85.333h85.333c47.13 0 85.333-38.205 85.333-85.333v-597.333c0-47.13-38.204-85.333-85.333-85.333zM213.292 512v-426.667h597.332v426.667h-597.332zM213.292 682.667v-85.333h597.332v85.333h-597.332z" />
<glyph unicode="&#xe925;" glyph-name="calendar_x" d="M810.667-0h-597.333c-47.128 0-85.333 38.204-85.333 85.333v597.333c0 47.128 38.205 85.333 85.333 85.333h85.333v85.333h85.333v-85.333h256v85.333h85.333v-85.333h85.333c47.13 0 85.333-38.205 85.333-85.333v-597.333c0-47.13-38.204-85.333-85.333-85.333zM213.333 512v-426.667h597.333v426.667h-597.333zM213.333 682.667v-85.333h597.333v85.333h-597.333zM414.123 140.502l-60.288 60.331 97.835 97.835-97.835 97.835 60.331 60.331 97.835-97.835 97.835 97.792 60.331-60.331-97.835-97.792 97.835-97.835-60.288-60.288-97.877 97.792-97.877-97.835z" />
<glyph unicode="&#xe926;" glyph-name="calendar_week" d="M810.667-0h-597.333c-47.128 0-85.333 38.204-85.333 85.333v597.333c0 47.128 38.205 85.333 85.333 85.333h85.333v85.333h85.333v-85.333h256v85.333h85.333v-85.333h85.333c47.13 0 85.333-38.205 85.333-85.333v-597.333c0-47.13-38.204-85.333-85.333-85.333zM213.333 512v-426.667h597.333v426.667h-597.333zM213.333 682.667v-85.333h597.333v85.333h-597.333zM725.333 341.334h-426.667v85.333h426.667v-85.333z" />
<glyph unicode="&#xe927;" glyph-name="calendar" d="M810.667-0h-597.333c-47.128 0-85.333 38.204-85.333 85.333v597.333c0 47.128 38.205 85.333 85.333 85.333h85.333v85.333h85.333v-85.333h256v85.333h85.333v-85.333h85.333c47.13 0 85.333-38.205 85.333-85.333v-597.333c0-47.13-38.204-85.333-85.333-85.333zM213.333 512v-426.667h597.333v426.667h-597.333zM213.333 682.667v-85.333h597.333v85.333h-597.333zM725.333 170.667h-85.333v85.333h85.333v-85.333zM554.667 170.667h-85.333v85.333h85.333v-85.333zM384 170.667h-85.333v85.333h85.333v-85.333zM725.333 341.334h-85.333v85.333h85.333v-85.333zM554.667 341.334h-85.333v85.333h85.333v-85.333zM384 341.334h-85.333v85.333h85.333v-85.333z" />
<glyph unicode="&#xe928;" glyph-name="calendar_plus" d="M810.667-0h-597.333c-47.128 0-85.333 38.204-85.333 85.333v597.333c0 47.128 38.205 85.333 85.333 85.333h85.333v85.333h85.333v-85.333h256v85.333h85.333v-85.333h85.333c47.13 0 85.333-38.205 85.333-85.333v-597.333c0-47.13-38.204-85.333-85.333-85.333zM213.333 512v-426.667h597.333v426.667h-597.333zM213.333 682.667v-85.333h597.333v85.333h-597.333zM554.667 170.667h-85.333v85.333h-85.333v85.333h85.333v85.333h85.333v-85.333h85.333v-85.333h-85.333v-85.333z" />
<glyph unicode="&#xe929;" glyph-name="calendar_minus" d="M810.667-0h-597.333c-47.128 0-85.333 38.204-85.333 85.333v597.333c0 47.128 38.205 85.333 85.333 85.333h85.333v85.333h85.333v-85.333h256v85.333h85.333v-85.333h85.333c47.13 0 85.333-38.205 85.333-85.333v-597.333c0-47.13-38.204-85.333-85.333-85.333zM213.333 512v-426.667h597.333v426.667h-597.333zM213.333 682.667v-85.333h597.333v85.333h-597.333zM640 256h-256v85.333h256v-85.333z" />
<glyph unicode="&#xe92a;" glyph-name="cloud_check" d="M810.662 85.334h-554.666c-133.36-0.077-244.442 102.238-255.302 235.153-10.86 132.919 82.14 251.907 213.745 273.477 60.574 107.397 174.255 173.888 297.556 174.040 76.885 0.291 151.573-25.658 211.712-73.56 59.055-46.842 101.039-111.828 119.467-184.918 110.246-16.939 188.834-115.947 180.309-227.162-8.521-111.215-101.282-197.090-212.821-197.030zM511.996 682.668c-92.513-0.11-177.805-50.010-223.231-130.603l-19.968-35.797-40.491-6.614c-87.454-14.652-149.12-93.837-141.9-182.217s80.918-156.506 169.591-156.77h554.666c66.927-0.068 122.607 51.43 127.753 118.157 5.146 66.731-41.98 126.157-108.126 136.35l-56.149 8.533-13.739 55.125c-28.361 114.057-130.876 194.050-248.405 193.836zM449.19 225.707l-149.332 149.333 60.16 60.16 89.173-89.173 196.267 196.267 60.16-60.16-256.427-256.427z" />
<glyph unicode="&#xe92b;" glyph-name="folder_plus" d="M853.333 42.667h-682.667c-47.128 0-85.333 38.204-85.333 85.333v597.333c0 47.128 38.205 85.333 85.333 85.333h256c11.315 0 22.165-4.499 30.165-12.501l72.832-72.832h323.669c47.13 0 85.333-38.205 85.333-85.333v-512c0-47.13-38.204-85.333-85.333-85.333zM170.667 640v-512h682.667v512h-682.667zM554.667 213.334h-85.333v128h-128v85.333h128v128h85.333v-128h128v-85.333h-128v-128z" />
<glyph unicode="&#xe92c;" glyph-name="file_minus" d="M768-0h-512c-47.128 0-85.333 38.204-85.333 85.333v682.667c0 47.128 38.205 85.333 85.333 85.333h298.667c0.465-0.020 0.926-0.106 1.365-0.256 0.418-0.129 0.845-0.215 1.28-0.256 3.763-0.241 7.479-0.973 11.051-2.176l1.195-0.384c0.969-0.328 1.907-0.727 2.816-1.195 4.646-2.066 8.883-4.957 12.501-8.533l256-256c3.575-3.618 6.468-7.853 8.533-12.501 0.427-0.939 0.725-1.92 1.067-2.901l0.384-1.109c1.19-3.558 1.894-7.261 2.091-11.008 0.068-0.392 0.166-0.777 0.299-1.152 0.077-0.393 0.102-0.794 0.090-1.195v-469.333c0-47.13-38.208-85.333-85.338-85.333zM256 768v-682.667h512v426.667h-213.333c-23.565 0-42.667 19.103-42.667 42.667v213.333h-256zM597.333 707.67v-110.336h110.336l-110.336 110.336zM640 256h-256v85.333h256v-85.333z" />
<glyph unicode="&#xe92d;" glyph-name="file_image" d="M768-0h-512c-47.128 0-85.333 38.204-85.333 85.333v682.667c0 47.128 38.205 85.333 85.333 85.333h298.667c0.384 0.050 0.768 0.050 1.152 0h0.256c0.401-0.126 0.819-0.212 1.237-0.256 3.763-0.241 7.479-0.972 11.051-2.176h1.792c0.789-0.551 1.527-1.165 2.219-1.835 4.646-2.066 8.883-4.957 12.501-8.533l256-256c3.575-3.617 6.468-7.853 8.533-12.501 0.384-0.939 0.683-1.835 0.981-2.816l0.427-1.195c1.19-3.558 1.894-7.261 2.091-11.008 0.038-0.425 0.137-0.842 0.299-1.237v-0.256c0.068-0.279 0.111-0.565 0.128-0.853v-469.334c0-22.63-8.99-44.335-24.994-60.339s-37.709-24.994-60.339-24.994zM384 256l-128-170.667h512l-213.333 298.667-128-170.667-42.667 42.667zM362.667 469.334c-34.902-0.047-63.331-28.049-63.905-62.946s26.919-63.821 61.801-65.015c34.882-1.195 64.289 25.779 66.104 60.634v-12.373 15.701c0 35.345-28.654 64-64 64zM554.667 768.001v-213.333h213.333l-213.333 213.333z" />
<glyph unicode="&#xe92e;" glyph-name="note" d="M554.667 42.667h-341.333c-47.128 0-85.333 38.204-85.333 85.333v597.333c0 47.128 38.205 85.333 85.333 85.333h597.333c47.13 0 85.333-38.205 85.333-85.333v-341.333c-0.017-0.495-0.107-0.981-0.256-1.451-0.124-0.388-0.209-0.789-0.256-1.195-0.243-3.763-0.973-7.479-2.176-11.051l-0.384-1.152c-0.286-0.964-0.644-1.903-1.067-2.816-2.065-4.646-4.958-8.883-8.533-12.501l-298.667-298.667c-7.957-7.962-18.739-12.454-29.995-12.501zM213.333 725.334v-597.333h298.667v256c0 23.565 19.102 42.667 42.667 42.667h256v298.667h-597.333zM597.333 341.334v-153.045l153.003 153.045h-153.003z" />
<glyph unicode="&#xe92f;" glyph-name="file_css" d="M768-0h-512c-47.128 0-85.333 38.204-85.333 85.333v682.667c0 47.128 38.205 85.333 85.333 85.333h298.667c0.384 0.050 0.768 0.050 1.152 0h0.256c0.401-0.126 0.819-0.212 1.237-0.256 3.763-0.241 7.479-0.972 11.051-2.176h1.792c0.789-0.551 1.527-1.165 2.219-1.835 4.646-2.066 8.883-4.957 12.501-8.533l256-256c3.575-3.617 6.468-7.853 8.533-12.501 0.384-0.939 0.683-1.835 0.981-2.816l0.427-1.195c1.19-3.558 1.894-7.261 2.091-11.008 0.038-0.425 0.137-0.842 0.299-1.237v-0.256c0.068-0.279 0.111-0.565 0.128-0.853v-469.334c0-22.63-8.99-44.335-24.994-60.339s-37.709-24.994-60.339-24.994zM598.485 196.267c-0.337-12.651 2.603-25.173 8.533-36.352 5.632-10.031 14.012-18.244 24.149-23.68 10.517-5.538 22.246-8.371 34.133-8.235 15.996-0.828 31.676 4.638 43.691 15.232 11.2 11.17 17.139 26.569 16.341 42.368 0.585 14.63-3.942 29.005-12.8 40.661-11.123 12.382-25.263 21.67-41.045 26.965-8.329 3.332-15.979 8.162-22.571 14.251-4.041 4.164-6.319 9.728-6.357 15.531-0.307 6.31 1.728 12.51 5.717 17.408 4.045 4.471 9.89 6.886 15.915 6.571 6.477 0.358 12.702-2.539 16.597-7.723 4.301-6.519 6.353-14.263 5.845-22.059h38.699c0.205 11.567-2.385 23.014-7.552 33.365-4.706 9.502-12.134 17.387-21.333 22.656-24.495 13.239-54.596 10.125-75.861-7.851-11.529-10.88-17.758-26.231-17.067-42.069-0.23-13.649 4.292-26.953 12.8-37.632 11.46-12.535 25.835-22.046 41.856-27.691 8.098-3.055 15.531-7.646 21.888-13.525 4.416-5.35 6.601-12.194 6.101-19.115 0-15.403-6.869-23.211-20.437-23.211-7.987-0.794-15.885 2.21-21.333 8.107-4.983 7.753-7.275 16.93-6.528 26.112l-39.381-0.085zM451.584 196.267c-0.337-12.651 2.603-25.173 8.533-36.352 5.632-10.031 14.012-18.244 24.149-23.68 10.517-5.53 22.251-8.363 34.133-8.235 15.996-0.828 31.676 4.638 43.691 15.232 11.093 11.221 16.922 26.615 16.043 42.368 0.585 14.63-3.942 29.005-12.8 40.661-11.123 12.382-25.263 21.67-41.045 26.965-8.329 3.332-15.979 8.162-22.571 14.251-4.023 4.177-6.302 9.732-6.357 15.531-0.307 6.31 1.728 12.51 5.717 17.408 4.058 4.484 9.92 6.899 15.957 6.571 6.477 0.358 12.702-2.539 16.597-7.723 4.314-6.511 6.37-14.263 5.845-22.059h38.955c0.179 11.567-2.411 23.006-7.552 33.365-4.723 9.489-12.147 17.37-21.333 22.656-9.681 5.5-20.655 8.299-31.787 8.107-16.196 0.55-31.983-5.163-44.075-15.957-11.529-10.88-17.758-26.231-17.067-42.069-0.247-13.653 4.279-26.961 12.8-37.632 11.435-12.544 25.801-22.059 41.813-27.691 8.111-3.055 15.556-7.65 21.931-13.525 4.416-5.35 6.601-12.194 6.101-19.115 0-15.403-6.869-23.211-20.48-23.211-7.987-0.794-15.885 2.21-21.333 8.107-5.056 7.697-7.437 16.841-6.784 26.027h-39.083zM366.933 341.334c-19.508 0.853-38.216-7.817-50.176-23.253-13.19-19.337-19.556-42.517-18.091-65.877v-34.944c-1.438-23.351 4.664-46.554 17.408-66.176 11.977-15.467 30.768-24.090 50.304-23.083 17.967-1.050 35.535 5.572 48.341 18.219 11.507 13.679 17.967 30.895 18.304 48.768v-2.261 3.541c0 0.64 0 1.237 0 1.877v1.963h-38.741c0.477-10.231-1.822-20.407-6.656-29.44-5.4-5.956-13.35-8.93-21.333-7.979-9.007-0.747-17.641 3.75-22.187 11.563-5.257 13.577-7.429 28.151-6.357 42.667v39.083c-0.654 13.231 1.71 26.432 6.912 38.613 4.441 7.953 13.108 12.587 22.187 11.861 8.033 0.934 15.991-2.278 21.12-8.533 4.768-9.323 6.962-19.75 6.357-30.208h39.168c-0.124 19.721-6.703 38.861-18.731 54.485-12.257 13.239-29.823 20.262-47.829 19.115zM554.667 768.001v-213.333h213.333l-213.333 213.333z" />
<glyph unicode="&#xe930;" glyph-name="file_pdf" d="M768-0h-512c-47.128 0-85.333 38.204-85.333 85.333v682.667c0 47.128 38.205 85.333 85.333 85.333h298.667c0.384 0.050 0.768 0.050 1.152 0h0.256c0.401-0.126 0.819-0.212 1.237-0.256 3.763-0.241 7.479-0.972 11.051-2.176h1.792c0.789-0.551 1.527-1.165 2.219-1.835 4.646-2.066 8.883-4.957 12.501-8.533l256-256c3.575-3.617 6.468-7.853 8.533-12.501 0.384-0.939 0.683-1.835 0.981-2.816l0.427-1.195c1.19-3.558 1.894-7.261 2.091-11.008 0.038-0.425 0.137-0.842 0.299-1.237v-0.256c0.068-0.279 0.111-0.565 0.128-0.853v-469.334c0-22.63-8.99-44.335-24.994-60.339s-37.709-24.994-60.339-24.994zM615.424 341.334v-213.333h40.107v87.040h62.293v35.755h-62.293v54.656h69.803v35.883h-109.909zM457.557 341.334v-213.333h51.456c21.585-1.062 42.487 7.727 56.832 23.893 14.716 18.778 22.089 42.274 20.736 66.091v34.56c0.99 23.569-6.588 46.699-21.333 65.109-13.884 15.804-34.15 24.503-55.168 23.68h-52.523zM298.667 341.334v-213.333h40.107v75.051h26.709c17.836-0.986 35.256 5.615 47.957 18.176 12.121 13.551 18.406 31.334 17.493 49.493 0.794 18.594-5.489 36.796-17.579 50.944-11.959 13.261-29.223 20.476-47.061 19.669h-67.627zM554.667 768.001v-213.333h213.333l-213.333 213.333zM509.696 163.755h-12.032v141.696h14.592c10.364 0.61 20.326-4.079 26.453-12.459 6.255-12.941 8.934-27.315 7.765-41.643v-37.077c0.939-13.641-2.022-27.268-8.533-39.296-6.993-8.162-17.557-12.361-28.245-11.221zM366.293 238.934h-27.563v66.517h27.947c6.977-0.077 13.424-3.733 17.067-9.685 4.617-7.62 6.847-16.444 6.4-25.344 0.535-8.299-1.668-16.542-6.272-23.467-4.244-5.325-10.775-8.307-17.579-8.021z" />
<glyph unicode="&#xe931;" glyph-name="file_archive" d="M768-0h-512c-47.128 0-85.333 38.204-85.333 85.333v682.667c0 47.128 38.205 85.333 85.333 85.333h42.667v-85.333h85.333v-85.333h-85.333v-85.333h85.333v-85.333h-85.333v-298.667h170.667v213.333h-85.333v85.334h85.333v85.333h-85.333v85.333h85.333v85.333h-85.333v85.333h170.667c0.384 0.050 0.768 0.050 1.152 0h0.256c0.401-0.126 0.819-0.212 1.237-0.256 3.763-0.241 7.479-0.972 11.051-2.176h1.792c0.789-0.551 1.527-1.165 2.219-1.835 4.646-2.066 8.883-4.957 12.501-8.533l256-256c3.575-3.617 6.468-7.853 8.533-12.501 0.384-0.939 0.683-1.835 0.981-2.816l0.427-1.195c1.19-3.558 1.894-7.261 2.091-11.008 0.038-0.425 0.137-0.842 0.299-1.237v-0.256c0.068-0.279 0.111-0.565 0.128-0.853v-469.334c0-22.63-8.99-44.335-24.994-60.339s-37.709-24.994-60.339-24.994zM554.667 768.001v-213.333h213.333l-213.333 213.333zM426.667 256h-85.333v85.333h85.333v-85.333z" />
<glyph unicode="&#xe932;" glyph-name="file_svg" d="M768-0h-512c-47.128 0-85.333 38.204-85.333 85.333v682.667c0 47.128 38.205 85.333 85.333 85.333h298.667c0.384 0.050 0.768 0.050 1.152 0h0.256c0.401-0.126 0.819-0.212 1.237-0.256 3.763-0.241 7.479-0.972 11.051-2.176h1.792c0.789-0.551 1.527-1.165 2.219-1.835 4.646-2.066 8.883-4.957 12.501-8.533l256-256c3.575-3.617 6.468-7.853 8.533-12.501 0.384-0.939 0.683-1.835 0.981-2.816l0.427-1.195c1.19-3.558 1.894-7.261 2.091-11.008 0.038-0.425 0.137-0.842 0.299-1.237v-0.256c0.068-0.279 0.111-0.565 0.128-0.853v-469.334c0-22.63-8.99-44.335-24.994-60.339s-37.709-24.994-60.339-24.994zM661.333 341.334c-19.366 1.041-37.965-7.689-49.536-23.253-12.476-19.665-18.449-42.756-17.067-66.005v-37.376c-1.207-22.98 5.278-45.713 18.432-64.597 12.373-14.895 31.049-23.087 50.389-22.101 11.925-0.119 23.757 2.116 34.816 6.571l0.555 0.213-0.683-0.299c10.432 4.322 19.657 11.115 26.88 19.797v85.803h-64.384v-31.659h26.581v-38.101l-3.328-2.56c-5.402-3.529-11.772-5.274-18.219-4.992-10.146-0.764-19.874 4.169-25.259 12.8-5.922 12.937-8.533 27.145-7.595 41.344v37.675c-0.785 13.542 1.643 27.081 7.083 39.509 4.382 8.141 13.086 13.001 22.315 12.459 6.98 0.567 13.833-2.125 18.56-7.296 4.971-8.111 7.556-17.455 7.467-26.965h36.992c0.107 18.995-6.259 37.461-18.048 52.352-12.237 11.861-28.958 17.933-45.952 16.683v0zM298.667 196.267c-0.265-12.642 2.67-25.148 8.533-36.352 5.395-9.975 13.54-18.193 23.467-23.68 10.115-5.504 21.466-8.337 32.981-8.235 15.607-0.815 30.888 4.676 42.411 15.232 10.842 11.354 16.495 26.692 15.616 42.368 0.541 14.537-3.866 28.826-12.501 40.533-10.697 12.318-24.437 21.619-39.851 26.965-8.121 3.345-15.545 8.179-21.888 14.251-3.948 4.258-6.129 9.856-6.101 15.659-0.323 6.285 1.648 12.471 5.547 17.408 3.877 4.459 9.589 6.878 15.488 6.571 6.325 0.324 12.383-2.581 16.085-7.723 4.131-6.537 6.074-14.217 5.547-21.931h37.803c0.182 11.541-2.33 22.967-7.339 33.365-4.542 9.434-11.771 17.318-20.779 22.656-9.343 5.431-20 8.192-30.805 7.979-15.765 0.486-31.088-5.248-42.667-15.957-11.32-10.999-17.419-26.3-16.768-42.069-0.264-13.589 4.116-26.867 12.416-37.632 10.996-12.48 24.947-21.999 40.576-27.691 7.931-3.063 15.18-7.659 21.333-13.525 4.309-5.397 6.427-12.224 5.931-19.115 0-15.403-6.699-23.211-19.84-23.211-7.778-0.713-15.436 2.291-20.651 8.107-4.828 7.812-7.040 16.96-6.315 26.112l-38.229-0.085zM434.432 338.432l53.76-207.616h39.467l54.144 207.616h-42.283l-31.787-150.699-31.445 150.571-41.856 0.128zM554.667 768.001v-213.333h213.333l-213.333 213.333z" />
<glyph unicode="&#xe933;" glyph-name="folder_minus" d="M853.333 42.667h-682.667c-47.128 0-85.333 38.204-85.333 85.333v597.333c0 47.128 38.205 85.333 85.333 85.333h256c11.315 0 22.165-4.499 30.165-12.501l72.832-72.832h323.669c47.13 0 85.333-38.205 85.333-85.333v-512c0-47.13-38.204-85.333-85.333-85.333zM170.667 640v-512h682.667v512h-682.667zM682.667 341.334h-341.333v85.333h341.333v-85.333z" />
<glyph unicode="&#xe934;" glyph-name="file_blank_fill" d="M768-0h-512c-47.128 0-85.333 38.204-85.333 85.333v682.667c0 47.128 38.205 85.333 85.333 85.333h298.667c0.384 0.050 0.768 0.050 1.152 0h0.256c0.401-0.126 0.819-0.212 1.237-0.256 3.763-0.241 7.479-0.972 11.051-2.176h1.792c0.789-0.551 1.527-1.165 2.219-1.835 4.646-2.066 8.883-4.957 12.501-8.533l256-256c3.575-3.617 6.468-7.853 8.533-12.501 0.384-0.939 0.683-1.835 0.981-2.816l0.427-1.195c1.19-3.558 1.894-7.261 2.091-11.008 0.038-0.425 0.137-0.842 0.299-1.237v-0.256c0.068-0.279 0.111-0.565 0.128-0.853v-469.334c0-22.63-8.99-44.335-24.994-60.339s-37.709-24.994-60.339-24.994zM554.667 768.001v-213.333h213.333l-213.333 213.333z" />
<glyph unicode="&#xe935;" glyph-name="cloud_off" d="M809.382 1.238l-84.053 84.096h-469.332c-133.36-0.081-244.442 102.238-255.302 235.153s82.14 251.907 213.745 273.476l0.811 1.451-129.92 129.92 60.373 60.331 724.052-724.053-60.373-60.373zM290.685 519.936l-62.507-10.197c-87.718-14.421-149.674-93.764-142.405-182.362s81.328-156.779 170.224-156.71h383.999l-349.311 349.269zM930.129 121.856l-62.251 62.208c49.869 24.887 77.901 79.185 69.312 134.255-8.589 55.066-51.823 98.249-106.901 106.769l-56.149 8.533-13.739 55.083c-18.85 75.489-71.014 138.307-141.751 170.713s-152.375 30.882-221.853-4.142l-62.763 62.677c92.684 56.648 206.796 65.8 307.323 24.647s175.462-127.695 201.818-233.074c86.763-13.359 156.484-78.498 175.697-164.151 19.213-85.658-16-174.336-88.742-223.475v-0.043z" />
<glyph unicode="&#xe936;" glyph-name="file_blank_outline" d="M768-0h-512c-47.128 0-85.333 38.204-85.333 85.333v682.667c0 47.128 38.205 85.333 85.333 85.333h298.667c0.465-0.020 0.926-0.106 1.365-0.256 0.418-0.129 0.845-0.215 1.28-0.256 3.763-0.241 7.479-0.973 11.051-2.176l1.195-0.384c0.969-0.328 1.907-0.727 2.816-1.195 4.646-2.066 8.883-4.957 12.501-8.533l256-256c3.575-3.618 6.468-7.853 8.533-12.501 0.427-0.939 0.725-1.92 1.067-2.901l0.384-1.109c1.19-3.558 1.894-7.261 2.091-11.008 0.068-0.392 0.166-0.777 0.299-1.152 0.077-0.393 0.102-0.794 0.090-1.195v-469.333c0-47.13-38.208-85.333-85.338-85.333zM256 768v-682.667h512v426.667h-213.333c-23.565 0-42.667 19.103-42.667 42.667v213.333h-256zM597.333 707.67v-110.336h110.336l-110.336 110.336z" />
<glyph unicode="&#xe937;" glyph-name="file_find" d="M768-0h-512c-47.128 0-85.333 38.204-85.333 85.333v682.666c0 47.128 38.205 85.333 85.333 85.333h298.667c11.324 0.040 22.191-4.463 30.165-12.501l256-256c8.038-7.976 12.54-18.842 12.501-30.165v-469.333c0-47.13-38.204-85.333-85.333-85.333zM256 768v-682.666h451.669l-109.483 109.483c-26.022-15.689-55.804-24.034-86.187-24.149-78.455-0.849-147.606 51.341-168.301 127.023s12.276 155.797 80.247 194.987c67.97 39.192 153.824 27.59 208.958-28.237 55.13-55.825 65.651-141.82 25.613-209.293l109.483-109.568v391.424l-230.997 230.997h-281.003zM512 426.667c-47.13 0-85.333-38.204-85.333-85.333s38.204-85.333 85.333-85.333c47.13 0 85.333 38.204 85.333 85.333s-38.204 85.333-85.333 85.333z" />
<glyph unicode="&#xe938;" glyph-name="folder_open" d="M768 85.329h-640c-11.324-0.111-22.214 4.356-30.194 12.39s-12.37 18.957-12.174 30.281h-0.299v597.333c0 47.128 38.205 85.333 85.333 85.333h256c9.532-0.009 18.782-3.209 26.283-9.088l97.451-76.245h217.6c47.13 0 85.333-38.205 85.333-85.333v-170.667h42.667c14.34 0 27.725-7.211 35.618-19.183s9.242-27.115 3.593-40.294l-128-298.667c-6.724-15.684-22.144-25.86-39.211-25.86zM284.16 384l-91.435-213.333h547.157l91.435 213.333h-547.157zM170.667 640v-304.213l46.123 107.691c6.723 15.684 22.146 25.856 39.211 25.856h512v170.667h-597.333z" />
<glyph unicode="&#xe939;" glyph-name="file_png" d="M768-0h-512c-47.128 0-85.333 38.204-85.333 85.333v682.667c0 47.128 38.205 85.333 85.333 85.333h298.667c0.384 0.050 0.768 0.050 1.152 0h0.256c0.401-0.126 0.819-0.212 1.237-0.256 3.763-0.241 7.479-0.972 11.051-2.176h1.792c0.789-0.551 1.527-1.165 2.219-1.835 4.646-2.066 8.883-4.957 12.501-8.533l256-256c3.575-3.617 6.468-7.853 8.533-12.501 0.384-0.939 0.683-1.835 0.981-2.816l0.427-1.195c1.19-3.558 1.894-7.261 2.091-11.008 0.038-0.425 0.137-0.842 0.299-1.237v-0.256c0.068-0.279 0.111-0.565 0.128-0.853v-469.334c0-22.63-8.99-44.335-24.994-60.339s-37.709-24.994-60.339-24.994zM663.125 341.334c-18.935 0.969-37.056-7.799-48.043-23.253-12.079-19.81-17.796-42.846-16.384-66.005v-37.376c-1.203-22.899 5.073-45.572 17.877-64.597 11.819-14.848 30.076-23.078 49.024-22.101 11.58-0.124 23.061 2.112 33.749 6.571l0.896 0.384c9.813 4.339 18.423 11.004 25.088 19.413v85.717h-62.677v-31.659h25.6v-38.101l-3.243-2.56c-5.205-3.507-11.392-5.257-17.664-4.992-9.937-0.7-19.426 4.25-24.533 12.8-5.76 12.983-8.294 27.17-7.381 41.344v37.675c-0.695 13.521 1.711 27.021 7.040 39.467 4.117 8.060 12.595 12.945 21.632 12.459 6.831 0.55 13.521-2.15 18.048-7.296 4.809-8.166 7.313-17.485 7.253-26.965h35.925c0.128 18.906-6.025 37.321-17.493 52.352-11.742 11.819-28.058 17.924-44.672 16.725h-0.043zM481.451 266.838l53.717-135.979h36.565v207.616h-36.48v-136.32l-53.888 136.32h-36.779v-207.616h36.779v135.979h0.085zM298.667 338.475v-207.616h36.779v73.003h24.533c16.559-0.866 32.661 5.594 44.032 17.664 11.173 13.504 16.854 30.716 15.915 48.213 0.776 17.963-4.967 35.601-16.171 49.664-10.627 12.676-26.523 19.716-43.051 19.072h-62.037zM554.667 768.001v-213.333h213.333l-213.333 213.333zM360.704 238.934h-25.259v64.64h25.6c6.566-0.107 12.58-3.699 15.787-9.429 4.274-7.492 6.317-16.047 5.888-24.661 0.517-8.026-1.498-16.009-5.76-22.827-3.792-5.124-9.888-8.021-16.256-7.723z" />
<glyph unicode="&#xe93a;" glyph-name="cloud" d="M0 341.334c-0.016 125.342 90.725 232.262 214.4 252.629 68.471 121.977 204.434 189.831 343.070 171.215s251.883-119.934 285.751-255.653c110.255-16.943 188.843-115.959 180.309-227.183-8.538-111.223-101.316-197.090-212.864-197.009h-554.667c-141.385 0-256 114.615-256 256z" />
<glyph unicode="&#xe93b;" glyph-name="cloud_outline" d="M810.662 85.334h-554.666c-133.36-0.077-244.442 102.238-255.302 235.153-10.86 132.919 82.14 251.907 213.745 273.477 60.574 107.397 174.255 173.887 297.556 174.039 76.873 0.281 151.539-25.667 211.669-73.559 59.046-46.831 101.030-111.801 119.467-184.876 110.37-16.806 189.111-115.866 180.595-227.183-8.521-111.313-101.423-197.235-213.065-197.052zM511.996 682.668c-92.513-0.11-177.805-50.010-223.231-130.603l-19.968-35.797-40.491-6.614c-87.454-14.652-149.12-93.837-141.9-182.217 7.219-88.375 80.918-156.506 169.591-156.77h554.666c66.927-0.068 122.607 51.43 127.753 118.157 5.146 66.731-41.98 126.157-108.126 136.35l-56.149 8.533-13.739 55.125c-28.361 114.057-130.876 194.051-248.405 193.836z" />
<glyph unicode="&#xe93c;" glyph-name="file_new" d="M768-0h-512c-47.128 0-85.333 38.204-85.333 85.333v682.667c0 47.128 38.205 85.333 85.333 85.333h298.667c0.384 0.050 0.768 0.050 1.152 0h0.256c0.401-0.126 0.819-0.212 1.237-0.256 3.763-0.241 7.479-0.972 11.051-2.176h1.792c0.789-0.551 1.527-1.165 2.219-1.835 4.646-2.066 8.883-4.957 12.501-8.533l256-256c3.575-3.617 6.468-7.853 8.533-12.501 0.384-0.939 0.683-1.835 0.981-2.816v-1.195c1.19-3.558 1.894-7.261 2.091-11.008 0.038-0.425 0.137-0.842 0.299-1.237v-0.256c0.218-0.262 0.401-0.549 0.555-0.853v-469.334c0-47.13-38.204-85.333-85.333-85.333zM256 768.001v-682.667h512v426.667h-213.333c-23.565 0-42.667 19.103-42.667 42.667v213.333h-256zM597.333 707.67v-110.336h110.336l-110.336 110.336zM554.667 170.667h-85.333v85.333h-85.333v85.333h85.333v85.333h85.333v-85.333h85.333v-85.333h-85.333v-85.333z" />
<glyph unicode="&#xe93d;" glyph-name="cloud_up" d="M810.662 85.334h-554.666c-133.36-0.077-244.442 102.238-255.302 235.153-10.86 132.919 82.14 251.907 213.745 273.477 60.574 107.397 174.255 173.888 297.556 174.040 76.885 0.291 151.573-25.658 211.712-73.56 59.055-46.842 101.039-111.828 119.467-184.918 110.246-16.939 188.834-115.947 180.309-227.162-8.521-111.215-101.282-197.090-212.821-197.030zM511.996 682.668c-92.513-0.11-177.805-50.010-223.231-130.603l-19.968-35.797-40.491-6.614c-87.454-14.652-149.12-93.837-141.9-182.217s80.918-156.506 169.591-156.77h554.666c66.927-0.068 122.607 51.43 127.753 118.157 5.146 66.731-41.98 126.157-108.126 136.35l-56.149 8.533-13.739 55.125c-28.361 114.057-130.876 194.050-248.405 193.836zM573.862 256h-123.733v128h-108.799l170.666 170.667 170.667-170.667h-108.8v-128z" />
<glyph unicode="&#xe93e;" glyph-name="cloud_close" d="M810.662 85.334h-554.666c-133.36-0.077-244.442 102.238-255.302 235.153-10.86 132.919 82.14 251.907 213.745 273.477 60.574 107.397 174.255 173.887 297.556 174.039 76.873 0.281 151.539-25.667 211.669-73.559 59.046-46.831 101.030-111.801 119.467-184.876 110.37-16.806 189.111-115.866 180.595-227.183-8.521-111.313-101.423-197.235-213.065-197.052zM511.996 682.668c-92.513-0.11-177.805-50.010-223.231-130.603l-19.968-35.797-40.491-6.614c-87.454-14.652-149.12-93.837-141.9-182.217 7.219-88.375 80.918-156.506 169.591-156.77h554.666c66.927-0.068 122.607 51.43 127.753 118.157 5.146 66.731-41.98 126.157-108.126 136.35l-56.149 8.533-13.739 55.125c-28.361 114.057-130.876 194.051-248.405 193.836zM401.618 238.336l-60.288 60.331 97.834 97.835-97.834 97.835 60.331 60.332 97.834-97.793 97.835 97.793 60.331-60.332-97.835-97.835 97.835-97.835-60.331-60.288-97.877 97.792-97.834-97.835z" />
<glyph unicode="&#xe93f;" glyph-name="file_js" d="M768-0h-512c-47.128 0-85.333 38.204-85.333 85.333v682.667c0 47.128 38.205 85.333 85.333 85.333h298.667c0.384 0.050 0.768 0.050 1.152 0h0.256c0.401-0.126 0.819-0.212 1.237-0.256 3.763-0.241 7.479-0.972 11.051-2.176h1.792c0.789-0.551 1.527-1.165 2.219-1.835 4.646-2.066 8.883-4.957 12.501-8.533l256-256c3.575-3.617 6.468-7.853 8.533-12.501 0.384-0.939 0.683-1.835 0.981-2.816l0.427-1.195c1.19-3.558 1.894-7.261 2.091-11.008 0.038-0.425 0.137-0.842 0.299-1.237v-0.256c0.068-0.279 0.111-0.565 0.128-0.853v-469.334c0-22.63-8.99-44.335-24.994-60.339s-37.709-24.994-60.339-24.994zM516.949 196.267c-0.247-12.642 2.688-25.139 8.533-36.352 5.414-9.958 13.555-18.172 23.467-23.68 10.099-5.5 21.436-8.333 32.939-8.235 15.603-0.798 30.882 4.685 42.411 15.232 10.871 11.341 16.559 26.679 15.701 42.368 0.457 14.571-4.058 28.868-12.8 40.533-10.662 12.318-24.375 21.619-39.765 26.965-8.128 3.358-15.565 8.188-21.931 14.251-3.934 4.22-6.14 9.762-6.187 15.531-0.354 6.289 1.621 12.484 5.547 17.408 3.866 4.45 9.562 6.874 15.445 6.571 6.345 0.363 12.433-2.551 16.128-7.723 4.173-6.566 6.144-14.293 5.632-22.059h37.931c0.183 11.541-2.33 22.967-7.339 33.365-4.514 9.442-11.729 17.327-20.736 22.656-9.318 5.521-19.977 8.371-30.805 8.235-15.765 0.495-31.091-5.239-42.667-15.957-11.307-11.004-17.387-26.304-16.725-42.069-0.277-13.585 4.087-26.859 12.373-37.632 11.004-12.467 24.956-21.986 40.576-27.691 7.927-3.068 15.177-7.663 21.333-13.525 4.309-5.397 6.426-12.224 5.931-19.115 0-15.403-6.699-23.211-19.84-23.211-7.765-0.708-15.407 2.3-20.608 8.107-4.83 7.812-7.040 16.96-6.315 26.112l-38.229-0.085zM384 192c-0.919-16.841 4.143-33.463 14.293-46.933 10.016-11.554 24.794-17.847 40.064-17.067 15.177-0.329 29.645 6.4 39.168 18.219 10.658 13.858 16.043 31.053 15.189 48.512v143.744h-37.845v-141.739c0-22.528-5.547-34.133-16.512-34.133s-16.341 9.899-16.341 29.397h-38.016zM554.667 768.001v-213.333h213.333l-213.333 213.333z" />
<glyph unicode="&#xe940;" glyph-name="folder" d="M853.333 42.667h-682.667c-47.128 0-85.333 38.204-85.333 85.333v597.333c0 47.128 38.205 85.333 85.333 85.333h256c11.315 0 22.165-4.499 30.165-12.501l72.832-72.832h323.669c47.13 0 85.333-38.205 85.333-85.333v-512c0-47.13-38.204-85.333-85.333-85.333zM170.667 640v-512h682.667v512h-682.667z" />
<glyph unicode="&#xe941;" glyph-name="file_html" d="M768-0h-512c-47.128 0-85.333 38.204-85.333 85.333v682.667c0 47.128 38.205 85.333 85.333 85.333h298.667c0.384 0.050 0.768 0.050 1.152 0h0.256c0.401-0.126 0.819-0.212 1.237-0.256 3.763-0.241 7.479-0.972 11.051-2.176h1.792c0.789-0.551 1.527-1.165 2.219-1.835 4.646-2.066 8.883-4.957 12.501-8.533l256-256c3.575-3.617 6.468-7.853 8.533-12.501 0.384-0.939 0.683-1.835 0.981-2.816l0.427-1.195c1.19-3.558 1.894-7.261 2.091-11.008 0.038-0.425 0.137-0.842 0.299-1.237v-0.256c0.068-0.279 0.111-0.565 0.128-0.853v-469.334c0-22.63-8.99-44.335-24.994-60.339s-37.709-24.994-60.339-24.994zM693.803 298.667v-170.667h95.531v28.587h-60.843v142.080h-34.688zM634.069 244.992l-3.157-70.784v-46.208h34.773v170.667h-45.099l-32.299-123.477-32.427 123.477h-45.269v-170.667h34.688v46.208l-3.413 71.125 34.133-117.333h23.637l34.432 116.992zM371.712 298.667v-28.715h41.728v-141.952h34.773v141.952h42.453v28.715h-118.955zM269.312 201.003h51.2v-73.003h34.56v170.667h-34.56v-69.035h-51.2v69.035h-34.645v-170.667h34.645v73.003zM554.667 768.001v-213.333h213.333l-213.333 213.333z" />
<glyph unicode="&#xe942;" glyph-name="file_jpg" d="M768-0h-512c-47.128 0-85.333 38.204-85.333 85.333v682.667c0 47.128 38.205 85.333 85.333 85.333h298.667c0.384 0.050 0.768 0.050 1.152 0h0.256c0.401-0.126 0.819-0.212 1.237-0.256 3.763-0.241 7.479-0.972 11.051-2.176h1.792c0.789-0.551 1.527-1.165 2.219-1.835 4.646-2.066 8.883-4.957 12.501-8.533l256-256c3.575-3.617 6.468-7.853 8.533-12.501 0.384-0.939 0.683-1.835 0.981-2.816l0.427-1.195c1.19-3.558 1.894-7.261 2.091-11.008 0.038-0.425 0.137-0.842 0.299-1.237v-0.256c0.068-0.279 0.111-0.565 0.128-0.853v-469.334c0-22.63-8.99-44.335-24.994-60.339s-37.709-24.994-60.339-24.994zM659.669 341.334c-19.699 1.097-38.669-7.607-50.688-23.253-12.698-19.575-18.769-42.714-17.323-66.005v-37.376c-1.22-23.053 5.449-45.837 18.901-64.597 12.809-14.955 31.834-23.117 51.499-22.101 12.203-0.128 24.311 2.103 35.669 6.571h0.085c0.397 0.235 0.811 0.435 1.237 0.597h0.213l0.683 0.341 0.896 0.427c9.314 4.284 17.583 10.547 24.235 18.347v85.803h-65.877v-31.659h27.179v-38.101l-3.413-2.56c-5.542-3.529-12.036-5.269-18.603-4.992-10.33-0.815-20.271 4.1-25.899 12.8-6.080 12.894-8.768 27.123-7.808 41.344v37.675c-0.738 13.559 1.792 27.093 7.381 39.467 4.595 8.183 13.461 13.022 22.827 12.459 7.125 0.593 14.127-2.091 19.029-7.296 5.086-8.068 7.753-17.425 7.68-26.965h37.76c0.077 19.063-6.451 37.559-18.475 52.352-12.689 11.917-29.828 17.984-47.189 16.725zM298.667 192c-0.916-16.9 4.296-33.566 14.677-46.933 10.416-11.601 25.518-17.873 41.088-17.067 15.462-0.371 30.246 6.34 40.149 18.219 10.887 13.756 16.419 30.989 15.573 48.512v143.744h-38.955v-141.739c0-22.528-5.675-34.133-17.067-34.133s-16.768 9.899-16.768 29.397h-38.699zM440.619 338.304v-207.616h38.827v73.173h25.899c17.301-0.951 34.202 5.466 46.507 17.664 11.669 13.265 17.673 30.575 16.725 48.213 0.755 18.112-5.338 35.844-17.067 49.664-11.55 12.809-28.207 19.802-45.44 19.072l-65.451-0.171zM554.667 768.001v-213.333h213.333l-213.333 213.333zM506.112 238.934h-26.667v64.64h27.093c6.81-0.030 13.116-3.601 16.64-9.429 4.501-7.411 6.669-16 6.229-24.661 0.533-8.068-1.596-16.085-6.059-22.827-4.16-5.21-10.581-8.090-17.237-7.723z" />
<glyph unicode="&#xe943;" glyph-name="cloud_down" d="M810.662 85.334h-554.666c-133.36-0.077-244.442 102.238-255.302 235.153-10.86 132.919 82.14 251.907 213.745 273.477 60.574 107.397 174.255 173.888 297.556 174.040 76.885 0.291 151.573-25.658 211.712-73.56 59.055-46.842 101.039-111.828 119.467-184.918 110.246-16.939 188.834-115.947 180.309-227.162-8.521-111.215-101.282-197.090-212.821-197.030zM511.996 682.668c-92.513-0.11-177.805-50.010-223.231-130.603l-19.968-35.797-40.491-6.614c-87.454-14.652-149.12-93.837-141.9-182.217s80.918-156.506 169.591-156.77h554.666c66.927-0.068 122.607 51.43 127.753 118.157 5.146 66.731-41.98 126.157-108.126 136.35l-56.149 8.533-13.739 55.125c-28.361 114.057-130.876 194.050-248.405 193.836zM511.996 256l-170.666 170.667h108.799v128h123.733v-128h108.8l-170.667-170.667z" />
<glyph unicode="&#xe944;" glyph-name="thin_long_left" d="M234.667 576l-149.333-149.333 149.333-149.333 30.165 30.165-97.835 97.835h771.669v42.667h-771.669l97.835 97.835-30.165 30.165z" />
<glyph unicode="&#xe945;" glyph-name="thin_long_02_up" d="M640 597.334l-128 128-128-128 30.165-30.165 76.501 76.501v-515.669h42.667v515.669l76.501-76.501 30.165 30.165z" />
<glyph unicode="&#xe946;" glyph-name="long_bottom_up" d="M724.437 578.134l0.299-151.467h85.931v298.667h-298.667v-85.931l151.467-0.299-450.133-450.133 60.971-60.971 450.133 450.133z" />
<glyph unicode="&#xe947;" glyph-name="thin_big_up" d="M832 661.334l-277.333 277.333-277.333-277.333 30.165-30.165 225.835 225.835v-942.336h42.667v942.336l225.835-225.835 30.165 30.165z" />
<glyph unicode="&#xe948;" glyph-name="chevron_duo_right" d="M529.664 170.24l-60.373 60.288 196.267 196.267-196.267 196.266 60.373 60.032 256.427-256.426-256.427-256.427zM298.195 170.24l-60.331 60.288 196.269 196.267-196.269 195.968 60.331 60.331 256.471-256.426-256.471-256.427z" />
<glyph unicode="&#xe949;" glyph-name="circle_chevron_left" d="M512-0c-235.642 0-426.667 191.027-426.667 426.667 0 235.642 191.025 426.667 426.667 426.667 235.639 0 426.667-191.025 426.667-426.667-0.26-235.533-191.134-426.406-426.667-426.667zM512 768c-187.503-0.047-339.863-151.333-341.238-338.829-1.375-187.499 148.751-341.005 336.233-343.799 187.482-2.799 342.118 146.159 346.338 333.615v-76.075 83.755c-0.213 188.425-152.909 341.122-341.333 341.333zM573.867 217.6l-211.2 211.2 211.2 211.2 60.331-60.331-150.869-150.869 150.827-150.869-60.288-60.331z" />
<glyph unicode="&#xe94a;" glyph-name="thin_long_up" d="M661.333 704l-149.333 149.333-149.333-149.333 30.165-30.165 97.835 97.835v-771.669h42.667v771.669l97.835-97.835 30.165 30.165z" />
<glyph unicode="&#xe94b;" glyph-name="chevron_duo_up" d="M315.861 152.534l-60.288 60.373 256.427 256.469 256.427-256.469-60.288-60.288-196.267 196.267-196.267-196.267 0.256-0.085zM315.861 383.958l-60.288 60.416 256.427 256.427 256.427-256.427-60.288-60.331-196.267 196.267-196.267-196.267 0.256-0.085z" />
<glyph unicode="&#xe94c;" glyph-name="shrink" d="M468.992 85.334h-84.992v213.333h-213.333v85.333h298.667l-0.341-298.667zM853.333 469.334h-298.667l0.299 298.667h85.035v-213.333h213.333v-85.333z" />
<glyph unicode="&#xe94d;" glyph-name="chevron_big_up" d="M874.031 275.84l-362.027 362.027-362.026-362.027 60.331-60.373 301.696 301.739 301.696-301.739 60.331 60.373z" />
<glyph unicode="&#xe94e;" glyph-name="circle_up" d="M512-0c-235.642 0-426.667 191.027-426.667 426.667 0 235.642 191.025 426.667 426.667 426.667 235.639 0 426.667-191.025 426.667-426.667-0.26-235.533-191.134-426.406-426.667-426.667zM511.317 85.334h0.683c188.446 0.188 341.086 153.058 340.992 341.504s-152.887 341.163-341.333 341.163c-188.447 0-341.239-152.716-341.333-341.163s152.546-341.316 340.992-341.504zM554.667 213.334h-85.333v263.253l-110.507-110.080-60.16 60.16 213.333 213.333 213.333-213.333-60.16-60.16-110.507 110.080v-263.253z" />
<glyph unicode="&#xe94f;" glyph-name="short_up" d="M554.667 604.587l153.173-152.747 60.16 60.16-256 256-256-256 60.16-60.16 153.173 152.747v-519.253h85.333v519.253z" />
<glyph unicode="&#xe950;" glyph-name="long_bottom_down" d="M299.563 275.2l-0.299 151.467h-85.931v-298.667h298.667v85.931l-151.467 0.299 450.133 450.133-60.971 60.971-450.133-450.133z" />
<glyph unicode="&#xe951;" glyph-name="small_long_left" d="M256 256v128h682.667v85.333h-682.667v128l-170.667-170.667 170.667-170.667z" />
<glyph unicode="&#xe952;" glyph-name="caret_left" d="M405.333 426.667l213.333-213.333v426.667l-213.333-213.333z" />
<glyph unicode="&#xe953;" glyph-name="caret_right" d="M618.667 426.667l-213.333 213.333v-426.667l213.333 213.333z" />
<glyph unicode="&#xe954;" glyph-name="thin_big_left" d="M277.333 704l-277.333-277.333 277.333-277.333 30.165 30.165-225.835 225.835h942.336v42.667h-942.336l225.835 225.835-30.165 30.165z" />
<glyph unicode="&#xe955;" glyph-name="thin_long_02_right" d="M682.667 298.667l128 128-128 128-30.165-30.165 76.501-76.501h-515.669v-42.667h515.669l-76.501-76.501 30.165-30.165z" />
<glyph unicode="&#xe956;" glyph-name="last_page" d="M322.476 170.24l-60.331 60.288 196.265 196.267-196.265 195.968 60.331 60.331 256.468-256.427-256.468-256.427zM761.941 170.667h-85.333v512h85.333v-512z" />
<glyph unicode="&#xe957;" glyph-name="expand" d="M512 128h-298.667l0.299 298.667h85.035v-213.333h213.333v-85.333zM810.325 426.667h-84.992v213.333h-213.333v85.333h298.667l-0.341-298.667z" />
<glyph unicode="&#xe958;" glyph-name="long_left" d="M248.747 469.334l110.080 110.507-60.16 60.16-213.333-213.333 213.333-213.333 60.16 60.16-110.080 110.507h689.92v85.333h-689.92z" />
<glyph unicode="&#xe959;" glyph-name="short_right" d="M689.92 384l-152.747-153.173 60.16-60.16 256 256-256 256-60.16-60.16 152.747-153.173h-519.253v-85.333h519.253z" />
<glyph unicode="&#xe95a;" glyph-name="circle_down" d="M512-0c-235.642 0-426.667 191.027-426.667 426.667 0 235.642 191.025 426.667 426.667 426.667 235.639 0 426.667-191.025 426.667-426.667-0.26-235.533-191.134-426.406-426.667-426.667zM512 768c-188.513 0-341.333-152.82-341.333-341.333s152.82-341.333 341.333-341.333c188.514 0 341.333 152.819 341.333 341.333-0.213 188.425-152.909 341.122-341.333 341.333zM512 213.334l-213.333 213.333 60.16 60.16 110.507-110.080v263.253h85.333v-263.253l110.507 110.080 60.16-60.16-213.333-213.333z" />
<glyph unicode="&#xe95b;" glyph-name="chevron_duo_left" d="M494.293 170.24l-256.429 256.427 256.429 256.426 60.373-60.331-196.269-196.266 196.269-196.267-60.373-59.989zM725.76 170.24l-256.469 256.427 256.469 256.426 60.331-60.331-196.267-196.266 196.267-196.267-60.331-59.989z" />
<glyph unicode="&#xe95c;" glyph-name="thin_long_02_down" d="M384 256l128-128 128 128-30.165 30.165-76.501-76.501v515.669h-42.667v-515.669l-76.501 76.501-30.165-30.165z" />
<glyph unicode="&#xe95d;" glyph-name="chevron_right" d="M670.426 426.667l-256.47 256.426-60.331-60.331 196.267-196.266-196.267-195.968 60.331-60.331 256.47 256.469z" />
<glyph unicode="&#xe95e;" glyph-name="chevron_left" d="M353.625 426.667l256.427-256.427 60.331 60.331-196.267 196.267 196.267 196.266-60.331 59.989-256.427-256.426z" />
<glyph unicode="&#xe95f;" glyph-name="short_down" d="M469.333 248.747l-153.173 152.747-60.16-60.16 256-256 256 256-60.16 60.16-153.173-152.747v519.253h-85.333v-519.253z" />
<glyph unicode="&#xe960;" glyph-name="chevron_big_down" d="M149.969 577.494l362.027-362.027 362.027 362.027-60.331 60.373-301.696-301.739-301.696 301.739-60.331-60.373z" />
<glyph unicode="&#xe961;" glyph-name="long_down" d="M469.333 163.414l-110.507 110.080-60.16-60.16 213.333-213.333 213.333 213.333-60.16 60.16-110.507-110.080v689.92h-85.333v-689.92z" />
<glyph unicode="&#xe962;" glyph-name="first_page" d="M701.611 170.24l-256.512 256.427 256.512 256.427 60.373-60.331-196.267-196.267 196.267-196.267-60.373-59.989zM347.479 170.667h-85.333v512h85.333v-512z" />
<glyph unicode="&#xe963;" glyph-name="thin_long_right" d="M789.333 277.334l149.333 149.333-149.333 149.333-30.165-30.165 97.835-97.835h-771.669v-42.667h771.669l-97.835-97.835 30.165-30.165z" />
<glyph unicode="&#xe964;" glyph-name="chevron_up" d="M512 585.046l-256.427-256.427 60.331-60.373 196.267 196.267 196.267-196.267 60.032 60.373-256.469 256.427z" />
<glyph unicode="&#xe965;" glyph-name="thin_big_right" d="M746.667 149.334l277.333 277.333-277.333 277.333-30.165-30.165 225.835-225.835h-942.336v-42.667h942.336l-225.835-225.835 30.165-30.165z" />
<glyph unicode="&#xe966;" glyph-name="thin_big_down" d="M277.333 192l277.333-277.333 277.333 277.333-30.165 30.165-225.835-225.835v942.336h-42.667v-942.336l-225.835 225.835-30.165-30.165z" />
<glyph unicode="&#xe967;" glyph-name="caret_down" d="M512 320l213.333 213.333h-426.667l213.333-213.333z" />
<glyph unicode="&#xe968;" glyph-name="small_long_down" d="M682.667 170.667h-128v682.667h-85.333v-682.667h-128l170.667-170.667 170.667 170.667z" />
<glyph unicode="&#xe969;" glyph-name="sub_right" d="M256 725.334v-341.333h433.92l-110.080 110.507 60.16 60.16 213.333-213.333-213.333-213.333-60.16 60.16 110.080 110.507h-519.253v426.667h85.333z" />
<glyph unicode="&#xe96a;" glyph-name="chevron_big_left" d="M662.827 788.694l-362.025-362.027 362.025-362.027 60.373 60.331-301.737 301.696 301.737 301.696-60.373 60.331z" />
<glyph unicode="&#xe96b;" glyph-name="unfold_more" d="M512 4.267l-210.985 211.456 60.075 60.117 150.91-150.827 150.827 150.827 60.373-60.331-211.2-211.243zM361.090 577.493l-60.288 60.373 211.198 211.2 210.944-211.413-60.075-60.075-150.869 150.784-150.91-150.869z" />
<glyph unicode="&#xe96c;" glyph-name="circle_chevron_up" d="M512-0c-235.642 0-426.667 191.027-426.667 426.667 0 235.642 191.025 426.667 426.667 426.667 235.639 0 426.667-191.025 426.667-426.667-0.26-235.533-191.134-426.406-426.667-426.667zM511.317 85.334h0.683c188.446 0.188 341.086 153.058 340.992 341.504s-152.887 341.163-341.333 341.163c-188.447 0-341.239-152.716-341.333-341.163s152.546-341.316 340.992-341.504zM363.264 304.47l-60.331 60.331 211.2 211.2 211.2-211.2-60.331-60.288-150.869 150.827-150.869-150.869z" />
<glyph unicode="&#xe96d;" glyph-name="long_right" d="M775.253 384l-110.080-110.507 60.16-60.16 213.333 213.333-213.333 213.333-60.16-60.16 110.080-110.507h-689.92v-85.333h689.92z" />
<glyph unicode="&#xe96e;" glyph-name="short_left" d="M334.080 469.334l152.747 153.173-60.16 60.16-256-256 256-256 60.16 60.16-152.747 153.173h519.253v85.333h-519.253z" />
<glyph unicode="&#xe96f;" glyph-name="chevron_down" d="M512 268.246l256.427 256.427-60.288 60.373-196.139-196.267-196.096 196.267-60.331-60.331 256.427-256.47z" />
<glyph unicode="&#xe970;" glyph-name="thin_long_02_left" d="M341.333 554.667l-128-128 128-128 30.165 30.165-76.501 76.501h515.669v42.667h-515.669l76.501 76.501-30.165 30.165z" />
<glyph unicode="&#xe971;" glyph-name="circle_left" d="M512-0c-235.642 0-426.667 191.027-426.667 426.667 0 235.642 191.025 426.667 426.667 426.667 235.639 0 426.667-191.025 426.667-426.667-0.26-235.533-191.134-426.406-426.667-426.667zM512 768c-187.503-0.047-339.863-151.333-341.238-338.829-1.375-187.499 148.751-341.005 336.233-343.799 187.482-2.799 342.118 146.159 346.338 333.615v-76.075 83.755c-0.213 188.425-152.909 341.122-341.333 341.333zM512 213.334l-213.333 213.333 213.333 213.333 60.16-60.16-110.080-110.507h263.253v-85.333h-263.253l110.080-110.507-60.16-60.16z" />
<glyph unicode="&#xe972;" glyph-name="circle_right" d="M512-0c-235.534 0.26-426.408 191.134-426.667 426.667v8.533c4.69 234.473 197.743 421.207 432.243 418.096s422.528-194.902 420.996-429.415c-1.532-234.517-192.051-423.834-426.573-423.881zM512 768c-188.513 0-341.333-152.82-341.333-341.333s152.82-341.333 341.333-341.333c188.514 0 341.333 152.819 341.333 341.333-0.213 188.425-152.909 341.122-341.333 341.333zM512 213.334l-60.16 60.16 110.080 110.507h-263.253v85.333h263.253l-110.080 110.507 60.16 60.16 213.333-213.333-213.333-213.333z" />
<glyph unicode="&#xe973;" glyph-name="chevron_duo_down" d="M512 152.576l-256.427 256.427 60.331 60.373 196.267-196.267 196.267 196.267 59.989-60.373-256.427-256.427zM512 384l-256.427 256.469 60.331 60.331 196.267-196.267 196.267 196.267 59.989-60.331-256.427-256.469z" />
<glyph unicode="&#xe974;" glyph-name="sub_left" d="M768 725.334v-341.333h-433.92l110.080 110.507-60.16 60.16-213.333-213.333 213.333-213.333 60.16 60.16-110.080 110.507h519.253v426.667h-85.333z" />
<glyph unicode="&#xe975;" glyph-name="circle_chevron_right" d="M512-0c-235.534 0.26-426.408 191.134-426.667 426.667v8.533c4.69 234.473 197.743 421.207 432.243 418.096s422.528-194.902 420.996-429.415c-1.532-234.517-192.051-423.834-426.573-423.881zM512 768c-188.513 0-341.333-152.82-341.333-341.333s152.82-341.333 341.333-341.333c188.514 0 341.333 152.819 341.333 341.333-0.213 188.425-152.909 341.122-341.333 341.333zM450.133 213.334l-60.331 60.373 150.827 150.827-150.827 150.827 60.331 60.373 211.2-211.2-211.2-211.2z" />
<glyph unicode="&#xe976;" glyph-name="long_up_right" d="M724.437 578.134l0.299-151.467h85.931v298.667h-298.667v-85.931l151.467-0.299-450.133-450.133 60.971-60.971 450.133 450.133z" />
<glyph unicode="&#xe977;" glyph-name="thin_long_down" d="M362.667 149.334l149.333-149.333 149.333 149.333-30.165 30.165-97.835-97.835v771.669h-42.667v-771.669l-97.835 97.835-30.165-30.165z" />
<glyph unicode="&#xe978;" glyph-name="chevron_big_right" d="M361.171 64.64l362.029 362.027-362.029 362.027-60.373-60.331 301.741-301.696-301.741-301.696 60.373-60.331z" />
<glyph unicode="&#xe979;" glyph-name="unfold_less" d="M361.090 94.763l-60.288 60.373 211.198 211.157 210.944-211.413-60.075-60.075-150.869 150.869-150.91-150.912zM512 486.998l-210.985 211.414 60.117 60.117 150.867-150.827 150.827 150.827 60.373-60.331-211.2-211.201z" />
<glyph unicode="&#xe97a;" glyph-name="long_up_left" d="M360.533 639.104l151.467 0.299v85.931h-298.667v-298.667h85.931l0.299 151.467 450.133-450.133 60.971 60.971-450.133 450.133z" />
<glyph unicode="&#xe97b;" glyph-name="small_long_up" d="M341.333 682.667h128v-682.667h85.333v682.667h128l-170.667 170.667-170.667-170.667z" />
<glyph unicode="&#xe97c;" glyph-name="long_up" d="M554.667 689.92l110.507-110.080 60.16 60.16-213.333 213.333-213.333-213.333 60.16-60.16 110.507 110.080v-689.92h85.333v689.92z" />
<glyph unicode="&#xe97d;" glyph-name="caret_up" d="M512 533.334l-213.333-213.333h426.667l-213.333 213.333z" />
<glyph unicode="&#xe97e;" glyph-name="small_long_right" d="M768 597.334v-128h-682.667v-85.333h682.667v-128l170.667 170.667-170.667 170.667z" />
<glyph unicode="&#xe97f;" glyph-name="circle_chevron_down" d="M512-0c-235.642 0-426.667 191.027-426.667 426.667 0 235.642 191.025 426.667 426.667 426.667 235.639 0 426.667-191.025 426.667-426.667-0.26-235.533-191.134-426.406-426.667-426.667zM512 768c-188.513 0-341.333-152.82-341.333-341.333s152.82-341.333 341.333-341.333c188.514 0 341.333 152.819 341.333 341.333-0.213 188.425-152.909 341.122-341.333 341.333zM509.867 277.334l-211.2 211.2 60.331 60.331 150.869-150.827 150.869 150.827 60.331-60.331-211.2-211.2z" />
<glyph unicode="&#xe980;" glyph-name="notification_outline_minus" d="M512-0c-47.13 0-85.333 38.204-85.333 85.333h170.667c0-47.13-38.204-85.333-85.333-85.333zM853.333 128h-682.667v85.333l85.333 42.667v234.667c0 147.712 60.629 243.499 170.667 269.653v93.013h170.667v-93.013h1.749l1.792-0.427c107.861-27.861 167.125-123.307 167.125-269.227v-234.667l85.333-42.667v-85.333zM512 693.334c-52.066 3.362-102.281-19.937-133.333-61.867-26.558-42.008-39.589-91.152-37.333-140.8v-277.333h341.333v277.333c2.253 49.647-10.778 98.791-37.333 140.8-31.053 41.929-81.267 65.229-133.333 61.867zM640 384h-256v85.333h256v-85.333z" />
<glyph unicode="&#xe981;" glyph-name="notification_deactivated" d="M512.009-0c-47.125 0-85.333 38.204-85.333 85.333h170.667c0-47.13-38.204-85.333-85.333-85.333zM835.635 4.267l-123.733 123.733h-541.225v85.333l85.333 42.667v234.667c-0.149 28.628 2.452 57.203 7.765 85.333l-152.192 152.363 60.331 60.331 724.009-724.139-60.288-60.288zM767.966 313.216l-414.719 414.763c22.183 15.377 47.11 26.356 73.428 32.341v93.013h170.667v-93.013c110.037-26.155 170.667-121.941 170.667-269.653v-177.493l-0.043 0.043z" />
<glyph unicode="&#xe982;" glyph-name="notification" d="M512-0c-47.104 0.23-85.295 38.234-85.76 85.333h170.667c0.090-11.409-2.086-22.72-6.4-33.28-11.191-25.685-34.057-44.42-61.44-50.347h-2.005c-4.958-1.033-10.001-1.604-15.061-1.707zM853.333 128h-682.667v85.333l85.333 42.667v234.667c-2.248 60.198 11.347 119.93 39.424 173.227 27.948 49.429 75.721 84.528 131.243 96.427v93.013h170.667v-93.013c110.037-26.197 170.667-121.941 170.667-269.653v-234.667l85.333-42.667v-85.333z" />
<glyph unicode="&#xe983;" glyph-name="notification_minus" d="M512-0c-47.104 0.23-85.295 38.234-85.76 85.333h170.667c0.090-11.409-2.086-22.72-6.4-33.28-11.191-25.685-34.057-44.42-61.44-50.347-5.606-1.22-11.332-1.792-17.067-1.707zM853.333 128h-682.667v85.333l85.333 42.667v234.667c-2.248 60.198 11.347 119.93 39.424 173.227 27.948 49.429 75.721 84.528 131.243 96.427v93.013h170.667v-93.013h0.469c1.067 0 2.091-0.427 3.115-0.683 107.819-27.691 167.083-123.136 167.083-268.971v-234.667l85.333-42.667v-85.333zM384 469.334v-85.333h256v85.333h-256z" />
<glyph unicode="&#xe984;" glyph-name="notification_outline_plus" d="M512-0c-47.13 0-85.333 38.204-85.333 85.333h170.667c0-47.13-38.204-85.333-85.333-85.333zM853.333 128h-682.667v85.333l85.333 42.667v234.667c0 147.712 60.629 243.499 170.667 269.653v93.013h170.667v-93.013c110.037-26.112 170.667-121.856 170.667-269.653v-234.667l85.333-42.667v-85.333zM512 693.334c-52.066 3.362-102.281-19.937-133.333-61.867-26.558-42.008-39.589-91.152-37.333-140.8v-277.333h341.333v277.333c2.253 49.647-10.778 98.791-37.333 140.8-31.053 41.929-81.267 65.229-133.333 61.867zM554.667 298.667h-85.333v85.333h-85.333v85.333h85.333v85.333h85.333v-85.333h85.333v-85.333h-85.333v-85.333z" />
<glyph unicode="&#xe985;" glyph-name="notification_outline_dot" d="M512-0c-47.13 0-85.333 38.204-85.333 85.333h170.667c0-47.13-38.204-85.333-85.333-85.333zM853.333 128h-682.667v85.333l85.333 42.667v234.667c0 147.712 60.629 243.499 170.667 269.653v93.013h128c-27.823-36.861-42.807-81.818-42.667-128 0-10.726 0.798-21.436 2.389-32.043h-2.389c-52.058 3.372-102.272-19.91-133.333-61.824-26.558-42.008-39.589-91.152-37.333-140.8v-277.333h341.333v277.333c0 9.003-0.299 17.664-0.896 25.6 28.224-5.828 57.327-5.931 85.589-0.299 0.469-9.003 0.64-17.579 0.64-25.6v-234.368l85.333-42.667v-85.333zM725.333 597.334c-25.779-0.031-50.965 7.749-72.235 22.315-50.27 34.365-69.372 99.387-45.675 155.482s83.631 87.728 143.313 75.642c59.682-12.085 102.588-64.544 102.596-125.438 0-70.692-57.306-128-128-128z" />
<glyph unicode="&#xe986;" glyph-name="notification_dot" d="M512-0c-47.13 0-85.333 38.204-85.333 85.333h170.667c0-47.13-38.204-85.333-85.333-85.333zM853.333 128h-682.667v85.333l85.333 42.667v234.667c-2.248 60.198 11.347 119.931 39.424 173.228 27.948 49.428 75.721 84.528 131.243 96.427v93.013h155.563c-55.45-61.971-64.704-152.593-22.925-224.493s125.094-108.731 206.391-91.241c1.493-15.232 2.219-31.020 2.219-46.934v-234.667l85.333-42.667v-85.333h0.085zM725.333 597.335c-67.853 0.105-123.831 53.139-127.603 120.886s45.978 126.666 113.399 134.301c67.422 7.635 129.088-38.668 140.561-105.543s-31.232-131.084-97.344-146.358c-9.515-2.186-19.251-3.288-29.013-3.285z" />
<glyph unicode="&#xe987;" glyph-name="notification_outline" d="M512-0c-47.13 0-85.333 38.204-85.333 85.333h170.667c0-47.13-38.204-85.333-85.333-85.333zM853.333 128h-682.667v85.333l85.333 42.667v234.667c0 147.712 60.629 243.499 170.667 269.653v93.013h170.667v-93.013c110.037-26.112 170.667-121.856 170.667-269.653v-234.667l85.333-42.667v-85.333zM512 693.334c-52.066 3.362-102.281-19.937-133.333-61.867-26.558-42.008-39.589-91.152-37.333-140.8v-277.333h341.333v277.333c2.253 49.647-10.778 98.791-37.333 140.8-31.053 41.929-81.267 65.229-133.333 61.867z" />
<glyph unicode="&#xe988;" glyph-name="notification_active" d="M512-0c-47.104 0.23-85.295 38.234-85.76 85.333h170.667c0.102-11.405-2.057-22.716-6.357-33.28-11.2-25.681-34.061-44.412-61.44-50.347h-1.963c-4.988-1.033-10.057-1.604-15.147-1.707zM853.333 128h-682.667v85.333l85.333 42.667v234.667c-2.248 60.198 11.347 119.93 39.424 173.227 27.948 49.429 75.721 84.528 131.243 96.427v93.013h170.667v-93.013c110.037-26.197 170.667-121.941 170.667-269.653v-234.667l85.333-42.667v-85.333zM937.387 512h-85.333c-3.972 110.34-57.015 213.141-144.64 280.32l60.587 61.013c51.034-39.7 92.267-90.586 120.533-148.736 29.227-60.204 45.85-125.742 48.853-192.597zM170.667 512h-85.333c3.002 66.856 19.626 132.394 48.853 192.597 28.265 58.15 69.502 109.036 120.533 148.736l60.587-61.013c-87.633-67.171-140.678-169.976-144.64-280.32z" />
<glyph unicode="&#xe989;" glyph-name="notification_plus" d="M512-0c-47.104 0.23-85.295 38.234-85.76 85.333h170.667c0.090-11.409-2.086-22.72-6.4-33.28-11.191-25.685-34.057-44.42-61.44-50.347-5.606-1.22-11.332-1.792-17.067-1.707zM853.333 128h-682.667v85.333l85.333 42.667v234.667c-2.248 60.198 11.347 119.93 39.424 173.227 27.948 49.429 75.721 84.528 131.243 96.427v93.013h170.667v-93.013h0.469c1.067 0 2.091-0.427 3.115-0.683 107.819-27.691 167.083-123.136 167.083-268.971v-234.667l85.333-42.667v-85.333zM384 469.334v-85.333h85.333v-85.333h85.333v85.333h85.333v85.333h-85.333v85.333h-85.333v-85.333h-85.333z" />
<glyph unicode="&#xe98a;" glyph-name="Figma" d="M381.655-0.004c-71.036-0.55-134.669 43.84-158.677 110.699s-3.151 141.589 52.011 186.351c-39.125 31.667-61.857 79.309-61.857 129.643s22.732 97.975 61.857 129.642c-55.18 44.747-76.049 119.482-52.036 186.344s87.663 111.242 158.703 110.664h260.692c71.040 0.578 134.69-43.802 158.703-110.664s3.145-141.597-52.036-186.344c55.164-44.761 76.019-119.491 52.011-186.35s-87.637-111.249-158.677-110.694c-32.811-0.043-64.917 9.51-92.373 27.477v-119.467c-0.397-92.629-75.691-167.462-168.318-167.3zM380.716 259.243c-50.537-0.798-90.936-42.274-90.406-92.813 0.53-50.543 41.789-91.162 92.332-90.901 50.543 0.265 91.38 41.31 91.384 91.853v91.861h-93.31zM642.389 518.527c-50.671-0.259-91.563-41.501-91.392-92.172 0.175-50.671 41.348-91.635 92.019-91.55s91.703 41.186 91.703 91.861c-0.188 50.854-41.515 91.955-92.373 91.86h0.043zM381.698 518.529c-32.819 0.174-63.238-17.174-79.799-45.509-16.561-28.331-16.748-63.351-0.491-91.861s46.49-46.178 79.309-46.353h93.31v183.723h-92.329zM549.973 777.813v-183.766h92.331c49.387-0.23 90.138 38.596 92.288 87.937v-18.56 22.528c-0.209 50.796-41.446 91.861-92.245 91.861h-92.373zM381.612 777.813c-32.819 0-63.145-17.509-79.554-45.931s-16.41-63.439 0-91.861c16.409-28.422 46.735-45.931 79.554-45.931h92.414v183.723h-92.414z" />
<glyph unicode="&#xe98b;" glyph-name="dropbox" d="M512.256 64l-213.589 136.064 213.333 135.936 213.333-135.936-213.077-136.064zM725.589 245.376l-213.333 135.979 213.333 135.979-213.333 135.936 213.333 136.064 213.333-136.064-213.333-135.936 213.333-135.979-213.333-135.979zM298.667 245.376l-213.333 135.979 213.333 135.979-213.333 135.936 213.333 136.064 213.333-136.064-213.333-135.893 213.333-135.979-213.333-136.021z" />
<glyph unicode="&#xe98c;" glyph-name="javascript" d="M896 42.667h-768v768h768v-768zM388.267 203.435l-58.368-36.011c9.097-19.964 23.84-36.83 42.411-48.512 20.175-11.563 43.098-17.459 66.347-17.067 12.194 0.085 24.341 1.515 36.224 4.267 24.858 6.114 45.931 22.532 57.941 45.141 11.968 28.16 16.38 58.957 12.8 89.344 0 5.803 0 11.733 0 17.707 0.213 43.819 0 88.405 0 131.584 0 22.016 0 44.075 0 66.176v1.792h-72.021c0-30.976 0-61.879 0-92.715 0-31.019 0-61.995 0-93.056 0-7.936 0-15.701 0-23.168 2.142-21.295 0.597-42.803-4.565-63.573-6.199-11.964-18.953-19.055-32.384-18.005-6.016 0.017-11.997 0.922-17.749 2.688-11.555 6.042-20.871 15.625-26.581 27.349l-1.408 2.389c-1.323 2.261-2.219 3.84-2.645 3.84v-0.171zM642.091 211.968l-58.581-33.579c4.796-10.496 11.413-20.058 19.541-28.245 2.005-2.219 4.267-4.608 6.357-7.253 28.646-25.617 66.082-39.177 104.491-37.845 49.702-4.898 96.661 23.642 115.2 70.016v0.341c4.855 17.045 5.632 34.995 2.261 52.395l1.451-2.091c-6.315 39.637-35.029 67.157-96.085 91.947-4.736 2.219-9.643 4.267-14.421 6.4-18.987 8.192-36.907 15.872-43.136 29.867-2.778 7.198-3.281 15.074-1.451 22.571 4.416 15.014 18.906 24.751 34.475 23.168 4.753 0 9.481-0.691 14.037-2.048 14.042-4.732 25.399-15.223 31.232-28.843 33.067 21.632 33.067 21.632 56.149 36.011-5.282 9.015-11.563 17.399-18.731 25.003-21.901 23.479-53.329 35.674-85.333 33.109h-5.12l-22.528-2.859c-21.158-4.749-40.299-15.996-54.741-32.171-16.977-21.231-24.623-48.439-21.193-75.409 3.435-26.97 17.655-51.392 39.411-67.695 18.688-12.791 38.844-23.287 60.032-31.275 27.349-11.52 50.944-21.333 55.723-39.296 2.893-10.402 0.759-21.559-5.76-30.165-11.584-11.439-27.605-17.207-43.819-15.787-4.463 0.013-8.926 0.299-13.355 0.853-24.128 5.406-44.672 21.129-56.192 43.008l0.085-0.128z" />
<glyph unicode="&#xe98d;" glyph-name="github" d="M513.109 853.334c-208.77 0.027-386.738-151.381-420.163-357.457-33.426-206.080 87.56-405.978 285.636-471.94 21.333-3.84 28.971 9.259 28.971 20.523 0 10.112-0.341 36.907-0.469 72.533-118.4-25.6-143.403 57.088-143.403 57.088-7.795 25.728-24.552 47.817-47.232 62.251-38.4 26.411 2.944 25.813 2.944 25.813 27.335-3.746 51.394-19.947 65.152-43.861 11.645-21.175 31.264-36.821 54.498-43.46 23.234-6.643 48.158-3.729 69.235 8.090 1.981 21.589 11.585 41.766 27.092 56.917-94.463 10.709-193.791 47.232-193.791 210.347-0.524 42.189 15.142 82.974 43.776 113.963-12.956 36.723-11.43 77.003 4.267 112.64 0 0 35.712 11.477 116.992-43.563 69.712 19.114 143.282 19.114 212.991 0 81.323 55.083 116.992 43.563 116.992 43.563 15.77-35.621 17.297-75.928 4.267-112.64 28.74-30.986 44.395-71.876 43.691-114.133 0-163.541-99.413-199.467-194.219-210.005 20.45-20.911 30.942-49.591 28.8-78.763 0-56.917-0.512-102.827-0.512-116.779 0-11.392 7.595-24.619 29.312-20.437 197.995 66.074 318.852 265.984 285.355 472.009-33.493 206.022-211.452 357.351-420.181 357.303z" />
<glyph unicode="&#xe98e;" glyph-name="coolicons" d="M694.874 182.865c-69.969 0.030-136.559 30.076-182.869 82.517-74.249-84.164-196.357-106.765-295.81-54.758-99.453 52.011-150.55 165.197-123.781 274.189 26.769 108.994 124.488 185.629 236.719 185.649 38.355 0.091 76.179-8.962 110.338-26.411-26.642-31.235-47.283-67.122-60.887-105.856-49.344 21.855-107.185 8.663-142.174-32.424s-38.796-100.292-9.357-145.523c29.438-45.235 85.114-65.724 136.851-50.368s87.22 62.903 87.215 116.868c0 134.647 109.15 243.799 243.797 243.799 134.643 0 243.797-109.152 243.797-243.799 0-134.643-109.154-243.797-243.797-243.797l-0.043-0.085zM573.018 422.396c1.169-66.893 56.043-120.346 122.944-119.757 66.906 0.585 120.832 54.985 120.832 121.89 0 66.91-53.926 121.31-120.832 121.896-66.901 0.586-121.775-52.865-122.944-119.762v-4.267z" />
<glyph unicode="&#xe98f;" glyph-name="instagram" d="M512.085 40.918c-104.962 0-117.335 0.555-158.295 2.347-31.942 1.050-63.469 7.543-93.227 19.2-51.485 20.036-92.197 60.762-112.213 112.256-11.208 29.867-17.254 61.419-17.877 93.312-2.389 40.875-2.389 54.272-2.389 158.421 0 105.259 0.555 117.547 2.389 158.293 0.637 31.849 6.682 63.36 17.877 93.184 19.995 51.561 60.772 92.323 112.341 112.299 29.809 11.255 61.327 17.316 93.184 17.92 40.747 2.304 54.144 2.304 158.21 2.304 105.813 0 117.973-0.555 158.293-2.304 31.936-0.609 63.539-6.669 93.44-17.92 51.554-19.998 92.322-60.752 112.341-112.299 11.396-30.259 17.472-62.262 17.963-94.592 2.389-40.875 2.389-54.23 2.389-158.336s-0.597-117.76-2.389-158.165c-0.636-31.923-6.699-63.505-17.92-93.397-20.070-51.529-60.843-92.271-112.384-112.299-29.858-11.187-61.393-17.233-93.269-17.877-40.747-2.347-54.101-2.347-158.464-2.347zM510.635 742.912c-104.365 0-115.202-0.512-155.949-2.347-24.32-0.323-48.406-4.811-71.211-13.269-33.674-12.886-60.321-39.424-73.344-73.045-8.524-23.053-13.013-47.402-13.269-71.979-2.261-41.344-2.261-52.181-2.261-155.819 0-102.4 0.384-114.816 2.261-155.904 0.382-24.329 4.868-48.418 13.269-71.253 13.042-33.6 39.684-60.117 73.344-73.003 22.789-8.516 46.884-13.005 71.211-13.269 41.301-2.389 52.181-2.389 155.949-2.389 104.661 0 115.499 0.512 155.904 2.389 24.337 0.294 48.439 4.783 71.253 13.269 33.468 12.996 59.942 39.454 72.96 72.917 8.508 23.070 12.992 47.433 13.269 72.021h0.469c1.835 40.789 1.835 51.669 1.835 155.904s-0.469 115.2-2.304 155.947c-0.384 24.3-4.873 48.362-13.269 71.168-12.988 33.511-39.467 60.019-72.96 73.045-22.81 8.501-46.916 12.991-71.253 13.269-41.259 2.347-52.053 2.347-155.904 2.347zM512.085 229.376c-79.791-0.051-151.75 47.97-182.322 121.664-30.573 73.698-13.737 158.558 42.656 214.999s141.236 73.352 214.96 42.843 121.805-102.428 121.826-182.215c-0.119-108.847-88.277-197.077-197.12-197.291zM512.085 554.752c-70.694 0-128.002-57.31-128.002-128 0-70.694 57.308-128 128.002-128 70.69 0 128 57.306 128 128-0.166 70.626-57.378 127.836-128 128zM716.885 585.173c-25.37 0.094-45.871 20.711-45.824 46.080s20.625 45.909 45.995 45.909c25.365 0 45.943-20.54 45.995-45.909 0.009-12.24-4.855-23.98-13.517-32.626s-20.412-13.488-32.649-13.454z" />
<glyph unicode="&#xe990;" glyph-name="stack_overflow" d="M803.844 42.71h-616.917v273.067h68.267v-204.8h480.384v204.8h68.267v-273.067zM667.311 179.243h-343.851v68.267h343.68v-68.267h0.171zM667.311 264.576l-335.317 69.931 14.421 66.219 335.403-70.059-14.635-66.091h0.128zM686.042 351.488l-310.613 145.323 28.757 62.164 310.656-145.066-28.715-62.464-0.085 0.043zM725.423 430.208l-263.253 219.306h0.384l43.221 51.797 262.912-219.135-43.392-52.011 0.128 0.043zM781.231 494.208l-205.099 275.156 55.893 41.344 205.056-275.243-55.979-41.428 0.128 0.171z" />
<glyph unicode="&#xe991;" glyph-name="invision" d="M826.116 42.961h-628.226c-38.407 0.047-69.523 31.185-69.547 69.589v628.226c0.047 38.39 31.156 69.5 69.547 69.547h628.183c38.404-0.047 69.538-31.143 69.632-69.547v-628.226c-0.047-38.413-31.177-69.542-69.589-69.589zM284.717 526.078l-16.555-61.015h54.528l-35.243-143.616c-2.59-11.358-4.020-22.95-4.267-34.603-1.983-18.743 4.726-37.367 18.209-50.543s32.257-19.456 50.953-17.041c39.67 1.724 75.304 24.772 93.143 60.245l-13.952-55.467h77.269l44.075 176.683c11.093 45.227 32.939 68.267 64.811 68.267 11.324 0.845 22.447-3.324 30.421-11.409 7.979-8.081 12.002-19.26 11.008-30.575 0.111-8.401-1.114-16.768-3.627-24.789l-22.528-81.323c-3.251-11.26-4.89-22.925-4.864-34.645-1.22-18.718 5.943-37.013 19.554-49.92 13.611-12.911 32.256-19.102 50.889-16.896 43.947 0 74.581 29.867 91.179 88.789l-30.165 11.648c-11.776-33.664-24.32-50.048-38.4-50.048-10.283 0-15.701 7.125-15.701 20.651 0.286 7.095 1.361 14.135 3.2 20.992l22.187 79.275c5.030 16.311 7.616 33.28 7.68 50.347 2.534 22.682-4.604 45.385-19.669 62.528-15.066 17.145-36.659 27.144-59.477 27.543-44.723-6.108-83.337-34.387-102.656-75.18l15.36 68.994h-118.955l-16.683-59.735h55.211l-34.133-136.021c-11.921-33.417-42.515-56.585-77.911-59.008-1.315-0.017-2.629 0.081-3.925 0.299-10.368 2.432-16.384 6.4-16.384 19.285 0.241 10.654 1.818 21.231 4.693 31.488l51.883 204.802h-131.157zM384.771 660.99c-16.615 0-31.968-8.864-40.276-23.253s-8.308-32.117 0-46.507c8.308-14.389 23.661-23.253 40.276-23.253v1.067c12.439-0.101 24.415 4.714 33.323 13.397 8.731 8.623 13.612 20.41 13.527 32.683-0.329 25.578-21.271 46.080-46.85 45.867z" />
<glyph unicode="&#xe992;" glyph-name="spotify" d="M512.431-0c-172.429-0.226-327.966 103.582-393.914 262.899-65.949 159.322-29.283 342.687 92.858 464.397 107.485 107.872 264.401 150.121 411.516 110.796s262.025-154.233 301.35-301.348c39.326-147.116-2.923-304.031-110.797-411.517-79.586-80.265-187.977-125.359-301.013-125.227zM449.199 287.062c78.409 1.634 155.695-18.829 223.019-59.051 4.151-2.786 9.037-4.271 14.037-4.267 9.109 0.23 17.489 5.043 22.272 12.8 3.725 7.189 4.369 15.578 1.792 23.253-2.18 5.837-6.72 10.483-12.501 12.8-75.802 45.090-162.743 67.989-250.923 66.091-54.71-0.418-109.209-6.844-162.517-19.157-13.976-3.725-22.474-17.869-19.2-31.957 3.3-11.371 13.397-19.435 25.216-20.139 2.268 0.009 4.524 0.337 6.699 0.981 49.849 11.861 100.868 18.116 152.107 18.645zM441.092 414.038c95.927 1.131 190.421-23.334 273.749-70.869 4.749-3.452 10.47-5.303 16.341-5.291 11.499 0.448 22.089 6.362 28.501 15.915 5.009 7.309 6.571 16.444 4.267 25.003-1.562 7.42-6.217 13.815-12.8 17.579-94.221 54.413-201.306 82.569-310.101 81.536-57.354 0.35-114.45-7.697-169.472-23.893-16.906-5.564-26.347-23.539-21.333-40.619 4.186-13.803 17.211-22.993 31.616-22.315 3.062-0.030 6.116 0.329 9.088 1.067 48.631 14.946 99.27 22.327 150.144 21.888zM449.156 545.792c109.397 3.156 217.771-21.819 314.752-72.533 6.537-3.571 13.884-5.41 21.333-5.333 13.231-0.277 25.839 5.602 34.133 15.915 5.158 9.438 6.502 20.493 3.755 30.891-2.569 10.374-9.297 19.232-18.603 24.491-109.363 58.127-231.902 86.993-355.712 83.797-68.556 0.705-136.877-8.111-203.008-26.197-18.575-5.745-30.092-24.283-27.013-43.481s19.818-33.204 39.258-32.849c3.785-0.003 7.551 0.543 11.179 1.621 58.508 16.588 119.117 24.58 179.925 23.723v-0.043z" />
<glyph unicode="&#xe993;" glyph-name="snapchat" d="M722.56 679.552c14.729-54.188 18.214-110.816 10.24-166.4v-2.005c-0.469-6.229-0.768-11.861-1.024-17.493 4.22-2.244 8.964-3.307 13.739-3.072 12.369 1.126 24.405 4.617 35.456 10.283 4.945 2.445 10.402 3.674 15.915 3.584 5.961 0.094 11.883-0.951 17.451-3.072 13.713-3.157 23.859-14.746 25.173-28.757 0.567-15.415-13.299-28.77-41.6-40.064-3.029-0.981-7.211-2.603-11.776-4.267-15.488-4.651-39.125-12.331-45.781-27.776-3.063-10.095-1.502-21.030 4.267-29.867l0.512-0.555c30.383-69.013 91.17-119.94 164.437-137.771 8.512-1.353 14.682-8.836 14.379-17.451-0.043-2.645-0.563-5.261-1.536-7.723-8.235-19.499-43.648-34.133-107.947-43.563-2.573-6.306-4.463-12.873-5.632-19.584-1.067-6.417-2.594-12.745-4.565-18.944-2.005-8.717-10.121-14.626-19.029-13.867h-1.024c-6.221 0.286-12.403 1.131-18.475 2.517-14.357 3.098-29.005 4.642-43.691 4.608-10.466 0.145-20.928-0.713-31.232-2.56-21.679-5.679-41.86-16.017-59.136-30.293-31.804-26.743-71.59-42.159-113.109-43.819-2.048 0-4.267 0.512-6.229 0.512h-5.163c-41.374 1.57-80.988 17.156-112.341 44.203-17.072 14.276-37.070 24.631-58.581 30.336-10.525 1.57-21.146 2.428-31.787 2.56-14.686-0.218-29.311-1.933-43.648-5.12-6.091-1.438-12.307-2.278-18.56-2.517-9.283-0.687-17.726 5.367-20.053 14.379-2.048 6.571-3.029 13.355-4.565 19.456-1.199 6.694-3.101 13.244-5.675 19.541-65.835 7.637-101.248 22.059-109.44 42.069-1.205 2.411-1.916 5.035-2.091 7.723-0.301 8.614 5.867 16.098 14.379 17.451 73.302 17.839 134.1 68.826 164.437 137.899l0.384 1.067c5.984 8.751 7.56 19.789 4.267 29.867-6.656 14.891-30.336 22.571-45.653 27.733-4.081 1.084-8.063 2.513-11.904 4.267-37.973 14.933-43.136 31.915-41.045 43.691 6.051 16.747 22.322 27.58 40.107 26.709 4.506 0.021 8.973-0.849 13.141-2.56 11.77-6.042 24.678-9.545 37.888-10.283 5.574-0.166 11.094 1.143 16 3.797l-1.749 19.541c-7.942 55.432-4.442 111.903 10.283 165.931 34.624 80.3 114.293 131.761 201.728 130.304l14.293 0.469h2.091c87.983 1.052 168.081-50.562 203.477-131.115z" />
<glyph unicode="&#xe994;" glyph-name="html5" d="M511.275 43.179l-273.664 77.909-61.141 689.068h671.104l-60.971-689.068-275.328-77.909zM328.149 371.328l10.453-133.248 173.355-46.293 171.861 46.080 23.851 260.821h-306.518l-7.381 86.743h321.408l7.424 83.669h-421.12l22.272-256.002h291.67l-10.368-109.483-92.971-25.6-94.55 25.899-6.016 67.413h-83.371z" />
<glyph unicode="&#xe995;" glyph-name="linkpath" d="M443.563-0c-13.751 0.009-27.256 3.627-39.167 10.496l-192.853 111.36c-24.169 14.016-39.069 39.821-39.125 67.755v222.72c0.042 27.955 14.944 53.777 39.125 67.797l58.581 33.837v-72.962c0.066-41.929 22.429-80.657 58.709-101.675l192.895-111.36c36.322-21.001 81.097-21.001 117.419 0l75.605 43.605v-81.963c-0.043-27.951-14.942-53.773-39.125-67.797l-192.896-111.36c-11.913-6.852-25.421-10.458-39.168-10.453zM580.395 251.35c-13.734 0-27.23 3.627-39.125 10.496l-192.895 111.36c-24.198 14.012-39.118 39.838-39.168 67.797v222.722c0.042 27.964 14.963 53.792 39.168 67.797l192.895 111.317c24.213 13.978 54.042 13.978 78.251 0l192.896-111.36c24.188-14.016 39.091-39.842 39.125-67.797v-222.722c-0.034-27.955-14.938-53.781-39.125-67.797l-192.896-111.36c-11.9-6.848-25.391-10.453-39.125-10.453z" />
<glyph unicode="&#xe996;" glyph-name="paypal" d="M486.319 42.283h-107.692c-5.472-0.311-10.748 2.082-14.123 6.4-3.421 4.382-4.817 10.014-3.84 15.488 1.707 10.283 3.84 23.851 6.528 41.088 1.493 9.472 3.115 19.755 4.864 31.019 5.333 34.133 8.96 57.045 11.392 72.021 0.967 5.999 2.119 13.111 3.456 21.333v0.853c2.19 13.623 4.864 30.178 8.021 49.664l4.267 26.411v0.213c3.072 18.97 5.489 34.061 7.253 45.269 0.196 4.608 2.296 8.926 5.798 11.93 3.503 2.999 8.093 4.412 12.677 3.9h64.855c31.113-0.337 62.17 2.697 92.629 9.045 45.858 9.152 88.401 30.511 123.136 61.824 30.434 29.235 53.278 65.455 66.56 105.514 6.481 18.61 11.503 37.697 15.019 57.088 0.299 1.792 0.64 2.816 1.067 3.157 0.252 0.329 0.649 0.519 1.067 0.512h0.427c0.934-0.393 1.822-0.894 2.645-1.493 22.383-16.958 37.363-41.902 41.813-69.632 5.047-29.008 4.467-58.717-1.707-87.508-8.081-55.718-36.262-106.556-79.232-142.933-47.471-33.835-104.986-50.615-163.2-47.616h-18.731c-6.976 0.055-13.722-2.466-18.944-7.083-5.419-4.702-9.024-11.145-10.197-18.219l-1.749-8.277-23.595-148.395-0.896-6.443c-1.22-7.151-4.979-13.619-10.581-18.219-5.278-4.54-12.028-6.997-18.987-6.912zM333.656 127.616h-126.507c-6.037-0.128-11.814 2.453-15.744 7.040-4.097 4.501-5.905 10.633-4.907 16.64l99.456 631.039c1.251 8.096 5.462 15.44 11.819 20.608 6.139 5.294 13.995 8.175 22.101 8.108h256.599c14.067-0.556 28.049-2.427 41.771-5.591 16.35-3.095 32.388-7.664 47.915-13.653 28.258-9.993 52.762-28.433 70.187-52.821 16.521-24.895 24.981-54.27 24.235-84.139-0.725-34.639-7.377-68.899-19.669-101.291-19.601-62.92-67.665-112.946-129.749-135.039-34.85-11.802-71.369-17.924-108.16-18.133-0.427-0.256-18.773-0.299-38.4-0.299l-38.402 0.299c-25.331 2.586-47.979-15.808-50.645-41.131-0.555-2.304-13.525-83.072-36.48-227.371 0.001-1.37-0.612-2.667-1.67-3.533-1.058-0.87-2.449-1.216-3.791-0.947l0.043 0.213z" />
<glyph unicode="&#xe997;" glyph-name="unsplash" d="M896 42.667h-768v432h240v-216.021h288v216.021h240v-432zM656 594.646h-288v216.021h288v-216.021z" />
<glyph unicode="&#xe998;" glyph-name="app_store" d="M512-0c-235.642 0-426.667 191.027-426.667 426.667 0 235.642 191.025 426.667 426.667 426.667 235.639 0 426.667-191.025 426.667-426.667-0.26-235.533-191.134-426.406-426.667-426.667zM329.685 307.755c-5.504-0.034-10.986-0.691-16.341-1.963l-6.4-1.749-25.344-43.392c-9.614-16.038-4.976-36.796 10.55-47.215s36.493-6.844 47.69 8.132l2.645 3.968 33.707 58.496c-11.075 14.81-28.44 23.59-46.933 23.723h0.427zM563.669 569.174c-13.274-12.47-22.076-28.963-25.045-46.933-4.757-24.777-0.201-50.441 12.8-72.064l129.707-224.683c6.336-10.714 17.847-17.297 30.293-17.323 5.338 0.017 10.603 1.242 15.403 3.584 16.448 8.111 23.885 27.516 17.067 44.544l-2.091 4.267-34.133 59.349h50.773c18.449 0.154 33.63 14.558 34.756 32.977 1.122 18.415-12.198 34.556-30.49 36.954l-4.267 0.256h-91.307l-93.611 162.133-9.771 17.067-0.085-0.128zM267.093 390.4c-4.522-0.004-8.999-0.887-13.184-2.603-4.241-1.771-8.096-4.352-11.349-7.595-6.573-6.592-10.257-15.522-10.24-24.832 0.006-17.681 13.141-32.606 30.677-34.859l4.267-0.213h319.147c7.159 14.396 6.891 31.369-0.725 45.525-6.485 13.274-19.187 22.421-33.835 24.363l-5.163 0.256h-108.843l150.528 260.651c4.638 8.080 5.892 17.664 3.499 26.667-2.381 9.019-8.286 16.704-16.384 21.333-15.232 8.771-34.603 4.944-45.355-8.96l-2.645-3.925-15.488-27.051-15.317 27.051c-6.336 10.713-17.847 17.295-30.293 17.323-5.35-0.019-10.633-1.244-15.445-3.584-16.439-8.144-23.863-27.548-17.067-44.587l2.091-4.267 35.413-62.293-114.56-198.4h-89.728z" />
<glyph unicode="&#xe999;" glyph-name="facebook" d="M85.417 426.582c0.050-209.894 152.679-388.612 359.981-421.504v298.197h-108.247v123.307h108.375v93.865c-4.847 44.478 10.347 88.806 41.455 120.963s74.91 48.807 119.526 45.437c32.021-0.518 63.962-3.369 95.573-8.534v-104.917h-53.931c-18.569 2.432-37.235-3.7-50.743-16.669s-20.395-31.369-18.718-50.018v-80.128h118.229l-18.901-123.349h-99.328v-298.155c224.188 35.43 381.397 240.179 357.739 465.916-23.663 225.736-219.917 393.435-446.579 381.606-226.666-11.829-404.395-199.046-404.431-426.017z" />
<glyph unicode="&#xe99a;" glyph-name="adobe_xd" d="M768-0h-512c-94.257 0-170.667 76.412-170.667 170.667v512c0 94.257 76.41 170.667 170.667 170.667h512c94.255 0 170.667-76.41 170.667-170.667v-512c0-94.255-76.412-170.667-170.667-170.667zM256 768c-47.128 0-85.333-38.205-85.333-85.333v-512c0-47.13 38.205-85.333 85.333-85.333h512c47.13 0 85.333 38.204 85.333 85.333v512c0 47.128-38.204 85.333-85.333 85.333h-512zM672.512 222.891c-37.286-1.502-73.557 12.382-100.309 38.4-27.716 31.599-41.933 72.806-39.595 114.773-0.858 40.789 13.692 80.397 40.747 110.933 28.608 30.245 68.766 46.839 110.379 45.611 3.883 0 6.912 0 9.941 0v85.333c0 6.676 5.397 12.094 12.075 12.117h56.192c3.119 0.116 6.17-0.95 8.533-2.987 2.334-2.211 3.61-5.319 3.499-8.533v-327.637c-0.201-11.302 0.367-22.609 1.707-33.835v-1.067c0.064-2.714-0.777-5.372-2.389-7.552-1.395-1.711-3.157-3.085-5.163-4.011-29.611-14.135-61.995-21.508-94.805-21.589l-0.811 0.043zM633.429 441.174l-0.213-0.256c-13.513-17.783-20.314-39.77-19.2-62.080-1.754-23.245 4.962-46.34 18.901-65.024 11.401-12.553 27.819-19.349 44.757-18.517 5.376-0.068 10.743 0.474 16 1.621v164.224c-3.981 0.853-8.047 1.267-12.117 1.237-18.436 0.495-36.113-7.343-48.128-21.333v0.128zM521.6 227.84h-61.909c-6.524-0.427-12.599 3.349-15.104 9.387l-8.96 18.773-0.213 0.469-8.747 17.451-2.731 5.675c-13.611 28.075-27.648 57.003-41.728 86.784-19.584-43.392-40.491-88.107-60.459-129.323v-0.427l-0.213-0.384c-1.428-2.394-3.42-4.399-5.803-5.845-2.422-1.446-5.201-2.185-8.021-2.133h-58.496c-5.027-0.247-9.607 2.871-11.221 7.637-1.041 3.58-0.364 7.441 1.835 10.453l95.104 181.803-91.989 184.064c-2.526 3.655-2.725 8.436-0.512 12.288 2.121 3.482 5.907 5.602 9.984 5.589h61.184c2.972 0.159 5.929-0.521 8.533-1.963 2.641-1.623 4.679-4.065 5.803-6.955 22.869-48 42.155-89.6 59.008-126.507 20.949 46.933 43.221 94.635 58.155 126.251l0.213 0.469 0.256 0.427v0.469c1.071 1.825 2.406 3.479 3.968 4.907 2.641 2.203 5.99 3.371 9.429 3.285h57.301c4.476 0.119 8.606-2.404 10.539-6.443 1.527-3.676 1.165-7.867-0.981-11.221l-92.032-178.645 97.365-187.733c2.074-3.302 2.53-7.373 1.237-11.051-1.647-4.527-5.978-7.522-10.795-7.467v-0.085z" />
<glyph unicode="&#xe99b;" glyph-name="google" d="M510.123 496.811v-147.243h204.459c-19.029-93.568-98.688-147.328-204.459-147.328-123.2 1.698-222.182 102.050-222.182 225.259 0 123.211 98.982 223.564 222.182 225.26 51.209 0.061 100.838-17.71 140.373-50.261l110.933 110.933c-127.249 111.869-313.088 126.258-456.042 35.309s-208.663-265.377-161.251-428.040 196.553-274.466 365.986-274.364c190.592 0 363.904 138.624 363.904 381.184-0.294 23.356-3.157 46.605-8.533 69.333l-355.371-0.043z" />
<glyph unicode="&#xe99c;" glyph-name="youtube" d="M512.256 127.488h-0.853c-2.645 0-267.307 0.512-334.080 18.645-36.718 9.89-65.393 38.583-75.264 75.307-12.007 67.738-17.805 136.435-17.323 205.227-0.31 68.907 5.645 137.698 17.792 205.525 10.142 36.757 38.691 65.581 75.349 76.075 64.939 17.067 322.304 17.067 333.227 17.067h0.896c2.688 0 268.032-0.512 334.123-18.645 36.642-9.942 65.259-38.575 75.179-75.221 12.39-67.991 18.206-137.015 17.365-206.123 0.299-68.821-5.67-137.527-17.835-205.269-9.997-36.676-38.69-65.306-75.392-75.221-64.853-17.195-322.261-17.365-333.184-17.365zM426.923 554.454l-0.213-256 222.379 128-222.165 128z" />
<glyph unicode="&#xe99d;" glyph-name="play_store" d="M230.399 42.667c-7.278-0.119-14.513 1.126-21.333 3.669l343.639 343.765 113.749-113.877-394.881-221.867c-12.509-7.334-26.679-11.358-41.173-11.691zM180.735 71.040c-6.985 12.651-10.462 26.94-10.069 41.387v627.412c-0.058 9.524 1.382 18.998 4.267 28.075l351.276-351.358-345.473-345.515zM700.373 295.382l-121.216 121.131 133.675 133.63 118.741-66.686c22.793-10.202 38.042-32.209 39.595-57.131-1.545-24.951-16.815-46.98-39.637-57.173l-131.157-73.771zM552.704 443.136l-355.841 355.796c9.77 7.224 21.598 11.127 33.749 11.136 14.351-0.509 28.351-4.57 40.747-11.819l407.511-229.035-126.165-126.078z" />
<glyph unicode="&#xe99e;" glyph-name="Sketch" d="M512 42.667h-2.176c-6.357 0.478-12.403 2.94-17.28 7.040-1.34 1.135-2.564 2.394-3.669 3.755l-396.375 472.491c-3.091 3.532-5.273 7.764-6.357 12.331 0 0.555-0.256 1.109-0.384 1.664-1.209 7.148 0.314 14.488 4.267 20.565l0.811 1.195 154.88 219.093c0.555 0.853 1.109 1.621 1.749 2.304 4.53 5.384 10.816 8.995 17.749 10.197 1.187 0.181 2.384 0.281 3.584 0.299l245.292 17.067 241.109-17.067c1.331-0.076 2.658-0.247 3.968-0.512 7.607-1.416 14.366-5.73 18.859-12.032l155.179-219.477c0.32-0.425 0.619-0.867 0.896-1.323 3.55-5.44 5.158-11.92 4.565-18.389-0.183-1.658-0.495-3.299-0.939-4.907-1.169-4.090-3.238-7.867-6.059-11.051l-396.501-472.405c-0.661-0.828-1.374-1.613-2.133-2.347-2.492-2.419-5.38-4.399-8.533-5.845-2.59-1.169-5.338-1.958-8.149-2.347-1.442-0.201-2.897-0.299-4.352-0.299zM339.028 515.798l172.972-373.419 172.971 373.419h-345.943zM750.336 515.798l-117.845-254.421 213.333 254.421h-95.488zM178.047 515.798l213.333-254.421-117.717 254.421h-95.616zM775.168 682.923l-11.093-108.843h87.979l-76.885 108.843zM512 730.923l-133.463-156.843h266.924l-133.461 156.843zM248.831 682.923l-76.885-108.843h87.979l-11.093 108.843zM575.019 747.904l131.157-154.155 14.891 143.915-146.048 10.24zM448.896 747.904l-145.964-10.24 14.72-143.915 131.244 154.155z" />
<glyph unicode="&#xe99f;" glyph-name="reddit" d="M512-0c-235.642 0-426.667 191.027-426.667 426.667 0 235.642 191.025 426.667 426.667 426.667 235.639 0 426.667-191.025 426.667-426.667-0.26-235.533-191.134-426.406-426.667-426.667zM290.432 488.832c-25.531-0.013-48.468-15.607-57.876-39.339-9.407-23.735-3.38-50.807 15.209-68.309 4.914-4.655 10.566-8.461 16.725-11.264-0.536-6.234-0.536-12.497 0-18.731 0-95.573 111.573-173.312 248.704-173.312s248.747 77.739 248.747 173.312c0.495 6.234 0.495 12.497 0 18.731 25.894 12.582 39.595 41.451 32.96 69.466s-31.821 47.68-60.608 47.313h-2.261c-15.283-0.563-29.824-6.75-40.832-17.365-48.533 33.003-105.591 51.231-164.267 52.48l27.733 133.12 91.221-19.2c2.351-21.635 20.608-38.033 42.368-38.059 1.553 0.002 3.106 0.087 4.651 0.256 22.622 2.271 39.488 21.882 38.353 44.589-1.139 22.708-19.883 40.531-42.62 40.531-1.613-0.039-3.221-0.167-4.821-0.384-13.525-1.437-25.553-9.233-32.384-20.992l-104.448 20.992c-0.926 0.198-1.869 0.299-2.816 0.299-6.17-0.073-11.473-4.387-12.8-10.411l-31.915-148.181c-59.401-0.841-117.25-19.072-166.4-52.437-11.52 10.884-26.776 16.93-42.624 16.896zM519.68 233.643c-2.389 0-4.821 0-7.211 0s-4.821 0-7.211 0c-35.409 0.137-69.828 11.703-98.133 32.981-1.952 2.355-2.882 5.393-2.586 8.435s1.795 5.845 4.164 7.778c2.064 1.673 4.638 2.594 7.296 2.603 2.659 0 5.237-0.917 7.296-2.603 23.919-17.527 52.821-26.931 82.475-26.837 2.078 0 4.151 0 6.229 0 2.517 0 5.077 0 7.595 0 29.269-0.047 57.809 9.118 81.579 26.197 2.249 2.295 5.321 3.584 8.533 3.584s6.285-1.289 8.533-3.584c4.629-4.783 4.531-12.403-0.213-17.067v1.707c-28.318-21.423-62.835-33.058-98.347-33.152v-0.043zM610.432 337.92h-0.683l0.341 1.664c-18.769 1.28-34.116 15.45-36.894 34.052-2.782 18.607 7.761 36.638 25.331 43.349 17.574 6.707 37.453 0.286 47.778-15.437 10.33-15.723 8.324-36.514-4.813-49.975-7.637-8.337-18.308-13.257-29.611-13.653h-1.451zM412.587 341.334c-23.564 0-42.667 19.102-42.667 42.667s19.103 42.667 42.667 42.667c23.565 0 42.667-19.102 42.667-42.667s-19.102-42.667-42.667-42.667z" />
<glyph unicode="&#xe9a0;" glyph-name="dribbble" d="M512-0c-235.642 0-426.667 191.027-426.667 426.667 0 235.642 191.025 426.667 426.667 426.667 235.639 0 426.667-191.025 426.667-426.667-0.26-235.533-191.134-426.406-426.667-426.667zM303.787 147.414l-0.213-0.427c97.41-72.973 225.89-89.69 338.731-44.075-16.175 86.985-40.149 172.335-71.637 255.019-72.324-25.216-138.445-65.549-193.963-118.315-27.361-25.907-51.048-55.437-70.4-87.765l-0.299-0.469v0.427l-0.768-1.493-0.512-0.853-0.299-0.555-0.725-1.536 0.085 0.043zM715.904 382.080c-21.005-0.030-41.988-1.455-62.805-4.267 27.187-75.968 48.58-153.886 64-233.088 72.508 52.267 121.792 130.739 137.387 218.752-45.141 12.454-91.755 18.756-138.581 18.731v-0.128zM162.859 428.587v-2.389c0.078-82.202 29.164-161.737 82.133-224.597 68.62 106.005 170.124 186.569 288.939 229.333l5.077 1.451c-7.552 16.683-14.635 31.573-21.717 45.483-113.838-31.919-231.428-48.491-349.653-49.28h-4.779zM702.549 454.443c52.941-0.196 105.766-5.022 157.867-14.421-2.714 72.175-27.959 141.687-72.192 198.784-51.618-57.725-115.861-102.756-187.733-131.584l1.237 0.512-1.323-0.555c7.637-15.915 14.336-30.805 19.925-44.075 1.323-3.157 2.432-5.888 3.456-8.533l1.749-4.267c25.57 2.837 51.285 4.22 77.013 4.139zM357.419 739.115c-92.787-45.797-160.462-130.414-184.747-230.997 99.43 1.536 198.382 14.1 295.040 37.461h1.195l0.427 0.555 2.304 0.555h0.256l1.707 0.341h0.683l0.896 0.256 1.707 0.427 0.981 0.427 0.939 0.256h0.853c-56.875 100.139-115.755 181.76-122.283 190.72h0.043zM512 774.871c-23.356 0.058-46.665-2.157-69.589-6.615 44.698-61.934 85.713-126.444 122.837-193.195 66.479 23.678 125.773 64.018 172.203 117.163-63.031 53.308-142.899 82.585-225.451 82.647z" />
<glyph unicode="&#xe9a1;" glyph-name="trello" d="M800 42.667h-576c-52.99 0.073-95.93 43.008-96 96v576c0.070 52.99 43.010 95.93 96 96h576c52.992-0.070 95.927-43.010 96-96v-576c-0.073-52.992-43.008-95.927-96-96zM273.92 710.827c-25.44-0.023-46.057-20.64-46.080-46.080v-435.84c0.023-25.438 20.64-46.054 46.080-46.080h142.080c25.438 0.026 46.054 20.642 46.080 46.080v435.84c-0.026 25.44-20.642 46.057-46.080 46.080h-142.080zM608 710.827c-25.438-0.023-46.054-20.64-46.080-46.080v-243.84c0.026-25.438 20.642-46.054 46.080-46.080h142.080c25.438 0.026 46.054 20.642 46.080 46.080v243.84c-0.026 25.44-20.642 46.057-46.080 46.080h-142.080z" />
<glyph unicode="&#xe9a2;" glyph-name="LinkedIn" d="M554.667 42.667h-170.667v512h170.667v-85.333c36.378 46.283 91.546 73.874 150.4 75.221 105.839-0.588 191.241-86.716 190.933-192.555v-309.333h-170.667v288c-6.827 47.676-47.71 83.046-95.872 82.944-21.065-0.666-40.951-9.89-55.066-25.54-14.114-15.654-21.239-36.382-19.729-57.404v-288zM298.667 42.667h-170.667v512h170.667v-512zM213.333 640c-47.128 0-85.333 38.205-85.333 85.333s38.205 85.333 85.333 85.333c47.128 0 85.333-38.205 85.333-85.333 0-22.632-8.99-44.337-24.994-60.34s-37.708-24.994-60.34-24.994z" />
<glyph unicode="&#xe9a3;" glyph-name="twitter" d="M853.12 653.313c38.246 22.865 66.867 58.87 80.512 101.291-35.938-21.325-75.264-36.347-116.267-44.416-56.849 60.137-146.923 74.772-219.887 35.727s-110.758-122.105-92.262-202.767c-147.216 7.391-284.374 76.932-377.343 191.317-48.519-83.687-23.725-190.668 56.661-244.48-29.068 0.934-57.492 8.806-82.901 22.955 0-0.768 0-1.536 0-2.304 0.017-87.172 61.456-162.266 146.901-179.541-26.963-7.334-55.245-8.414-82.688-3.157 24.030-74.551 92.738-125.623 171.051-127.147-64.861-50.906-144.961-78.515-227.413-78.379-14.615-0.021-29.218 0.819-43.733 2.517 83.729-53.803 181.178-82.359 280.704-82.261 138.465-0.951 271.53 53.636 369.437 151.552s152.486 230.989 151.522 369.451c0 7.936-0.183 15.829-0.555 23.68 35.861 25.916 66.807 58.020 91.392 94.805-33.408-14.808-68.843-24.53-105.131-28.843z" />
<glyph unicode="&#xe9a4;" glyph-name="discord" d="M837.333-0l-87.125 76.8-101.035 93.867 21.333-75.051h-459.434c-46.011 0.166-83.19 37.572-83.072 83.584v547.968c-0.071 45.978 37.094 83.334 83.072 83.499h543.189c45.978-0.165 83.145-37.521 83.072-83.499v-727.168zM644.267 362.326c-17.988-24.128-43.891-41.165-73.173-48.128 12.032-15.36 26.539-32.725 26.667-32.896 48.943-1.033 95.287 21.986 124.032 61.611-1.472 82.146-21.423 162.906-58.368 236.288-32.529 25.524-72.124 40.421-113.408 42.667h-0.469l-5.675-6.485c36.877-9.905 71.266-27.435 100.949-51.456-37.769 20.761-79.211 33.978-122.027 38.912-27.213 3.022-54.686 2.75-81.835-0.811-1.92-0.038-3.831-0.238-5.717-0.597h-1.195c-31.814-3.663-62.856-12.302-91.989-25.6-14.592-6.699-23.552-11.563-23.936-11.733s0 0 0 0.299c31.483 24.762 67.805 42.654 106.624 52.523l-4.267 4.864h-0.256c-41.284-2.251-80.878-17.147-113.408-42.667-37.081-73.331-57.039-154.125-58.368-236.288 28.388-39.889 74.795-62.997 123.733-61.611 0 0 15.275 18.603 27.179 33.664-28.544 7.172-53.695 24.073-71.125 47.787 0.299-0.213 4.523-3.072 11.349-6.827 0.459-0.538 1.026-0.977 1.664-1.28 0.541-0.375 1.111-0.704 1.707-0.981 0.675-0.307 1.318-0.678 1.92-1.109 9.519-5.248 19.401-9.809 29.568-13.653 19.331-7.654 39.327-13.508 59.733-17.493 17.869-3.366 36.006-5.082 54.187-5.12 17.045 0 34.057 1.574 50.816 4.693 20.186 3.546 39.898 9.387 58.752 17.408 16.29 6.263 31.829 14.323 46.336 24.021zM557.312 380.544c-18.564-1.617-36.215 8.324-44.454 25.037-8.235 16.713-5.372 36.77 7.219 50.509 12.591 13.734 32.324 18.334 49.69 11.58s28.804-23.479 28.804-42.112c0.939-23.804-17.502-43.908-41.301-45.013h0.043zM409.344 380.544c-23.345 2.035-41.26 21.581-41.26 45.013s17.915 42.978 41.26 45.013c10.754-0.034 21.034-4.42 28.501-12.16 8.474-8.794 13.082-20.604 12.8-32.811 0.99-23.846-17.502-43.994-41.344-45.056h0.043z" />
<glyph unicode="&#xe9a5;" glyph-name="css3" d="M511.27 43.141l-271.744 77.355-60.672 684.073h666.24l-60.587-684.116-273.237-77.312zM329.467 368.986l9.216-122.325 173.355-53.931 170.283 48.64 38.613 423.38h-418.134l6.741-83.157h321.238l-7.936-86.356h-210.688l7.595-81.579h196.267l-11.605-111.787-92.331-25.6-93.867 25.6-5.973 66.987h-82.773v0.128z" />
<glyph unicode="&#xe9a6;" glyph-name="slack" d="M624.687-1.024c-49.515 0.166-89.579 40.341-89.6 89.856v89.899h89.6c49.651 0 89.899-40.247 89.899-89.899 0-49.647-40.247-89.899-89.899-89.899v0.043zM399.322-1.024c-49.516 0.166-89.577 40.341-89.6 89.856v225.024c0 32.064 17.106 61.692 44.875 77.726s61.981 16.034 89.747 0c27.772-16.034 44.877-45.662 44.877-77.726v-225.024c-0.026-49.634-40.265-89.856-89.899-89.856zM849.455 223.958h-224.768c-49.638 0-89.877 40.239-89.877 89.877s40.239 89.877 89.877 89.877h224.768c49.638 0 89.877-40.239 89.877-89.877s-40.239-89.877-89.877-89.877zM174.596 223.958c-49.638 0-89.877 40.239-89.877 89.877s40.239 89.877 89.877 89.877h89.6v-89.856c0-49.617-40.197-89.852-89.813-89.899h0.213zM849.455 449.622h-89.6v89.857c0.141 49.451 40.32 89.438 89.771 89.344s89.476-40.234 89.429-89.685c-0.047-49.452-40.149-89.516-89.6-89.516zM624.687 449.622c-49.515 0.166-89.579 40.341-89.6 89.857v225.024c0 32.064 17.105 61.693 44.873 77.725 27.772 16.032 61.982 16.032 89.749 0 27.772-16.032 44.877-45.661 44.877-77.725v-225.024c-0.026-49.635-40.265-89.857-89.899-89.857zM399.322 449.622h-224.725c-49.638 0-89.877 40.239-89.877 89.878s40.239 89.877 89.877 89.877h224.725c49.638 0 89.877-40.239 89.877-89.877s-40.239-89.878-89.877-89.878zM488.922 674.603h-89.6c-36.363-0.103-69.203 21.719-83.194 55.282s-6.375 72.25 19.295 98.006c25.67 25.755 64.332 33.5 97.939 19.621 33.613-13.879 55.543-46.647 55.561-83.010v-89.899z" />
<glyph unicode="&#xe9a7;" glyph-name="messenger" d="M273.113 42.667v136.064c-88.155 64.623-140.544 167.138-141.269 276.437 0 196.011 170.667 355.499 380.16 355.499s380.16-159.488 380.203-355.499c0.043-196.011-170.667-355.413-380.16-355.413-36.907-0.051-73.643 4.962-109.184 14.891l-129.749-71.979zM471.898 551.723l-207.574-220.288 189.355 104.704 98.133-102.144 207.616 220.245-189.184-104.704-98.347 102.187z" />
</font>
</defs>
</svg>
